(18+) American Wedding (2003) UnRated Du Torrent Free Download

Seeders : 744   &   Leechers : 568      11-11-2018 (1 week)
(18+) American Wedding (2003) UnRated Du Torrent Download
Added: ago by ExtraMovies ***** in Movies   1.1 GB   Hits : 28
Info Hash: 667565FD272DE85C20DED687E7D79816FD71411F Download
(18+) American Wedding (2003) UnRated Du Torrent Download

Anonymous and Direct Download movies , software , shows...

Fast Safe Anonymous
movies, software, shows...

Torrent Description





http://extramovies.trade




Movie Info

Format : Matroska
Format version : Version 4 / Version 2
File size : 1.07 GiB
Duration : 1 h 43 min
Overall bit rate : 1 480 kb/s
Movie name : ExtraMovies.trade - (18+) American Wedding / (2003) UnRated 720p BluRay Dual Audio Hindi DD5.1+Eng x264 AC3 ESubs
Encoded date : UTC 2018-11-11 07:08:51
Writing application : mkvmerge v10.0.0 ('To Drown In You') 64bit
Writing library : libebml v1.3.4 + libmatroska v1.4.5

Video
ID : 1
Format : AVC
Format/Info : Advanced Video Codec
Format profile : [email protected]
Format settings : CABAC / 8 Ref Frames
Format settings, CABAC : Yes
Format settings, RefFrames : 8 frames
Codec ID : V_MPEG4/ISO/AVC
Duration : 1 h 43 min
Bit rate : 999 kb/s
Width : 1 280 pixels
Height : 542 pixels
Display aspect ratio : 2.35:1
Frame rate mode : Constant
Frame rate : 23.976 (24000/1001) FPS
Color space : YUV
Chroma subsampling : 4:2:0
Bit depth : 8 bits
Scan type : Progressive
Bits/(Pixel*Frame) : 0.060
Stream size : 738 MiB (67%)
Title : ExtraMovies.trade
Writing library : x264 core 142 r2479 dd79a61
Encoding settings : cabac=1 / ref=8 / deblock=1:0:0 / analyse=0x3:0x113 / me=umh / subme=9 / psy=1 / psy_rd=1.00:0.00 / mixed_ref=1 / me_range=16 / chroma_me=1 / trellis=2 / 8x8dct=1 / cqm=0 / deadzone=21,11 / fast_pskip=1 / chroma_qp_offset=-2 / threads=12 / lookahead_threads=1 / sliced_threads=0 / nr=0 / decimate=1 / interlaced=0 / bluray_compat=0 / constrained_intra=0 / bframes=3 / b_pyramid=2 / b_adapt=2 / b_bias=0 / direct=3 / weightb=1 / open_gop=0 / weightp=2 / keyint=240 / keyint_min=24 / scenecut=40 / intra_refresh=0 / rc_lookahead=40 / rc=2pass / mbtree=1 / bitrate=999 / ratetol=1.0 / qcomp=0.60 / qpmin=0 / qpmax=69 / qpstep=4 / cplxblur=20.0 / qblur=0.5 / vbv_maxrate=62500 / vbv_bufsize=78125 / nal_hrd=none / filler=0 / ip_ratio=1.40 / aq=1:1.00
Default : Yes
Forced : No
Color range : Limited
Color primaries : BT.709
Transfer characteristics : BT.709
Matrix coefficients : BT.709

Audio #1
ID : 2
Format : AC-3
Format/Info : Audio Coding 3
Codec ID : A_AC3
Duration : 1 h 43 min
Bit rate mode : Constant
Bit rate : 384 kb/s
Channel(s) : 6 channels
Channel positions : Front: L C R, Side: L R, LFE
Sampling rate : 48.0 kHz
Frame rate : 31.250 FPS (1536 SPF)
Bit depth : 16 bits
Compression mode : Lossy
Stream size : 284 MiB (26%)
Title : ExtraMovies.trade
Language : Hindi
Service kind : Complete Main
Default : Yes
Forced : No

Audio #2
ID : 3
Format : AAC
Format/Info : Advanced Audio Codec
Format profile : HE-AACv2 / HE-AAC / LC
Format settings : NBC
Codec ID : A_AAC-2
Duration : 1 h 43 min
Bit rate : 96.0 kb/s
Channel(s) : 6 channels
Channel(s)_Original : 2 channels / 17 channels / 17 channels
Channel positions : Front: L R / Front: L C R, Side: 7, Back: 5, LFE= 2 / Front: L C R, Side: 7, Back: 5, LFE= 2
Sampling rate : 48.0 kHz / 48.0 kHz / 24.0 kHz
Frame rate : 23.438 FPS (1024 SPF)
Compression mode : Lossy
Stream size : 71.0 MiB (6%)
Title : ExtraMovies.trade
Language : English
Default : No
Forced : No

Text
ID : 4
Format : UTF-8
Codec ID : S_TEXT/UTF8
Codec ID/Info : UTF-8 Plain Text
Duration : 1 h 37 min
Bit rate : 73 b/s
Count of elements : 1746
Stream size : 52.4 KiB (0%)
Title : ExtraMovies.trade
Language : English
Default : Yes
Forced : No










Audio Source: Hammer Tnx bhai
Audio Sync By: Deepak Bhirmaan

http://extramovies.trade





Sharing Widget


No Comments For This Torrent . Be The First to Comment

You must Login to Comment . Click Here to Login

Menu 1

Some content in menu 1.

(18+) American Wedding (2003) UnRated Dual Audio [Hindi-DD5 1] 720p Bl (Size: 1.1 GB)
  (18+) American Wedding (2003) UnRated Dual Audio [Hindi-DD5 1] 720p Bl 1.1 GB
tracker name
udp://tracker.leechers-paradise.org:6969/announce
udp://zer0day.ch:1337/announce
udp://open.demonii.com:1337/announce
udp://tracker.coppersurfer.tk:6969/announce
udp://exodus.desync.com:6969/announce
µTorrent compatible trackers list

Relative Torrents

Torrent Name Size Age SEED LEECH
Hoffa (1992) [BluRay] [720p] [YTS] [YIFY
Posted by    YTSAGx   in   Movies
1.2 GB 9 minutes 725 998
Beyond The Sky 2018 BluRay 1080p x264 DT-HD MA5 1-DTOne
Posted by    SaM   in   Movies
7.8 GB 12 minutes 171 639
Boarding School 2018 1080 Bluray x264 DT-HDMA 5 1-DTOne
Posted by    SaM   in   Movies
10.5 GB 18 minutes 491 560
In Darkness 2018 1080 Bluray x264 DTS-HDA 5 1-DTOne
Posted by    SaM   in   Movies
9.2 GB 18 minutes 802 977
Rumble Roses
Posted by    guiuli   in   Games
836.8 MB 20 minutes 951 157