[60mbAnime com] One Piece - 861 [480p] [ Torrent Free Download

Seeders : 480   &   Leechers : 659      11-11-2018 (1 week)
[60mbAnime com] One Piece - 861 [480p] [ Torrent Download
Added: ago by 60mbAnime ***** in Anime   193.5 MB   Hits : 30
Info Hash: CE33B24225D17E14D386355829594C8B07B6AE2E Download
[60mbAnime com] One Piece - 861 [480p] [ Torrent Download

Anonymous and Direct Download movies , software , shows...

Fast Safe Anonymous
movies, software, shows...

Torrent Description



General
Complete name : [60mbAnime.com] One Piece - 861 [480p] [EngSub].mkv
Format : Matroska
Format version : Version 4
File size : 194 MiB
Duration : 23 min 55 s
Overall bit rate : 1 131 kb/s
Encoded date : UTC 2010-02-22 21:41:29
Writing application : no_variable_data
Writing library : no_variable_data
Attachments : OpenSans-Semibold.ttf

Video
ID : 1
Format : AVC
Format/Info : Advanced Video Codec
Format profile : [email protected]
Format settings : CABAC / 6 Ref Frames
Format settings, CABAC : Yes
Format settings, RefFrames : 6 frames
Codec ID : V_MPEG4/ISO/AVC
Duration : 23 min 55 s
Bit rate : 1 031 kb/s
Width : 848 pixels
Height : 480 pixels
Display aspect ratio : 16:9
Frame rate mode : Constant
Frame rate : 23.976 (24000/1001) FPS
Color space : YUV
Chroma subsampling : 4:2:0
Bit depth : 8 bits
Scan type : Progressive
Bits/(Pixel*Frame) : 0.106
Stream size : 176 MiB (91%)
Writing library : x264 core 142
Encoding settings : cabac=1 / ref=6 / deblock=1:1:1 / analyse=0x1:0x111 / me=umh / subme=8 / psy=1 / psy_rd=0.40:0.00 / mixed_ref=1 / me_range=16 / chroma_me=1 / trellis=1 / 8x8dct=0 / cqm=0 / deadzone=21,11 / fast_pskip=1 / chroma_qp_offset=-2 / threads=6 / lookahead_threads=1 / sliced_threads=0 / nr=0 / decimate=1 / interlaced=0 / bluray_compat=0 / constrained_intra=0 / bframes=5 / b_pyramid=2 / b_adapt=2 / b_bias=0 / direct=3 / weightb=1 / open_gop=0 / weightp=2 / keyint=48 / keyint_min=25 / scenecut=0 / intra_refresh=0 / rc_lookahead=48 / rc=crf / mbtree=1 / crf=17.0 / qcomp=0.60 / qpmin=0 / qpmax=69 / qpstep=4 / vbv_maxrate=2000 / vbv_bufsize=3000 / crf_max=0.0 / nal_hrd=none / filler=0 / ip_ratio=1.40 / aq=1:0.60
Default : Yes
Forced : No

Audio
ID : 2
Format : AAC LC
Format/Info : Advanced Audio Codec Low Complexity
Codec ID : A_AAC-2
Duration : 23 min 55 s
Bit rate : 96.0 kb/s
Channel(s) : 2 channels
Channel layout : L R
Sampling rate : 44.1 kHz
Frame rate : 43.066 FPS (1024 SPF)
Compression mode : Lossy
Delay relative to video : -83 ms
Stream size : 16.4 MiB (8%)
Language : Japanese
Default : Yes
Forced : No

Text
ID : 3
Format : ASS
Codec ID : S_TEXT/ASS
Codec ID/Info : Advanced Sub Station Alpha
Duration : 23 min 31 s
Bit rate : 112 b/s
Count of elements : 315
Compression mode : Lossless
Stream size : 19.4 KiB (0%)
Language : English
Default : Yes
Forced : No




Sharing Widget


No Comments For This Torrent . Be The First to Comment

You must Login to Comment . Click Here to Login

Menu 1

Some content in menu 1.

[60mbAnime com] One Piece - 861 [480p] [EngSub] (Size: 193.5 MB)
  [60mbAnime com] One Piece - 861 [480p] [EngSub] 193.5 MB
tracker name
udp://tracker.leechers-paradise.org:6969/announce
udp://zer0day.ch:1337/announce
udp://open.demonii.com:1337/announce
udp://tracker.coppersurfer.tk:6969/announce
udp://exodus.desync.com:6969/announce
µTorrent compatible trackers list

Relative Torrents

Torrent Name Size Age SEED LEECH
Kentucky Ayahuasca S01E01 Taylor Jose an Summer WEB x264-CAFFEiNE [eztv]
Posted by    EZTVag   in   TV
367.6 MB 27 seconds 315 834
The Clinton Affair S01E03 XviD-AFG[TGx]
Posted by    mazemaze16   in   TV
509.3 MB 10 minutes 703 704
Beyond The Sky 2018 BluRay 1080p x264 DT-HD MA5 1-DTOne
Posted by    SaM   in   Movies
7.8 GB 11 minutes 171 639
The Ballad Of Buster Scruggs 2018 1080p F WebDL AVC DD 5 1-DTOne
Posted by    SaM   in   Movies
5.6 GB 14 minutes 102 518
Boarding School 2018 1080 Bluray x264 DT-HDMA 5 1-DTOne
Posted by    SaM   in   Movies
10.5 GB 17 minutes 491 560