Beirut 2018 1080p BluRay x264 6ch AAC ~H Torrent Free Download

Seeders : 635   &   Leechers : 240      11-11-2018 (1 week)
Beirut 2018 1080p BluRay x264 6ch AAC ~H Torrent Download
Added: ago by HEVCvideo ***** in Movies   2.6 GB   Hits : 22
Info Hash: 4A56C8E55FE90D9322B9D6B7AD1612742B4E8396 Download
Beirut 2018 1080p BluRay x264 6ch AAC ~H Torrent Download

Anonymous and Direct Download movies , software , shows...

Fast Safe Anonymous
movies, software, shows...
Beirut
Crime /Drama /Thriller  .   109 min   6.5/10
Director : Brad Anderson  
Writer: Tony Gilroy  
Tags: Beirut  2018  1080p  BluRay  x264  6ch  

Released:
11 Apr 2018
Caught in the crossfires of civil war, CIA operatives must send a former U.S. diplomat to negotiate for the life of a friend he left behind.

Torrent Description



General
Complete name               : Beirut.2018.1080p.BluRay.REMUX.AVC.DTS-HD.MA.5.1-FGT\Beirut 2018 1080p BluRay x264 6ch AAC ~HEVCvideo.mp4
Format                      : MPEG-4
Format profile              : Base Media
Codec ID                    : isom (isom/avc1)
File size                   : 2.59 GiB
Duration                    : 1 h 49 min
Overall bit rate mode       : Variable
Overall bit rate            : 3 376 kb/s
Encoded date                : UTC 2018-11-10 22:41:54
Tagged date                 : UTC 2018-11-10 22:41:54
Writing application         : StaxRip 1.7.0.0
Cover                       : Yes

Video
ID                          : 1
Format                      : AVC
Format/Info                 : Advanced Video Codec
Format profile              : [email protected]
Format settings             : CABAC / 16 Ref Frames
Format settings, CABAC      : Yes
Format settings, ReFrames   : 16 frames
Codec ID                    : avc1
Codec ID/Info               : Advanced Video Coding
Duration                    : 1 h 49 min
Bit rate                    : 2 909 kb/s
Maximum bit rate            : 12.0 Mb/s
Width                       : 1 920 pixels
Height                      : 800 pixels
Display aspect ratio        : 2.40:1
Frame rate mode             : Constant
Frame rate                  : 23.976 (24000/1001) FPS
Color space                 : YUV
Chroma subsampling          : 4:2:0
Bit depth                   : 8 bits
Scan type                   : Progressive
Bits/(Pixel*Frame)          : 0.079
Stream size                 : 2.23 GiB (86%)
Writing library             : x264 core 152 r2851 ba24899
Encoding settings           : cabac=1 / ref=16 / deblock=1:0:0 / analyse=0x3:0x133 / me=umh / subme=10 / psy=1 / psy_rd=1.00:0.00 / mixed_ref=1 / me_range=24 / chroma_me=1 / trellis=2 / 8x8dct=1 / cqm=0 / deadzone=21,11 / fast_pskip=1 / chroma_qp_offset=-2 / threads=12 / lookahead_threads=2 / sliced_threads=0 / nr=0 / decimate=1 / interlaced=0 / bluray_compat=0 / constrained_intra=0 / bframes=8 / b_pyramid=2 / b_adapt=2 / b_bias=0 / direct=3 / weightb=1 / open_gop=0 / weightp=2 / keyint=2500 / keyint_min=23 / scenecut=40 / intra_refresh=0 / rc_lookahead=60 / rc=crf / mbtree=1 / crf=20.0 / qcomp=0.60 / qpmin=0 / qpmax=69 / qpstep=4 / ip_ratio=1.40 / aq=3:1.00
Encoded date                : UTC 2018-11-10 22:41:54
Tagged date                 : UTC 2018-11-10 22:44:03

Audio
ID                          : 2
Format                      : AAC
Format/Info                 : Advanced Audio Codec
Format profile              : LC
Codec ID                    : mp4a-40-2
Duration                    : 1 h 49 min
Bit rate mode               : Variable
Bit rate                    : 463 kb/s
Maximum bit rate            : 731 kb/s
Channel(s)                  : 6 channels
Channel positions           : Front: L C R, Side: L R, LFE
Sampling rate               : 48.0 kHz
Frame rate                  : 46.875 FPS (1024 SPF)
Compression mode            : Lossy
Stream size                 : 363 MiB (14%)
Language                    : English
Encoded date                : UTC 2018-11-10 16:25:38
Tagged date                 : UTC 2018-11-10 22:44:03

Menu
00:00:00.000                : Chapter 01
00:06:12.622                : Chapter 02
00:13:35.481                : Chapter 03
00:17:22.249                : Chapter 04
00:22:57.292                : Chapter 05
00:28:06.351                : Chapter 06
00:34:22.393                : Chapter 07
00:39:46.634                : Chapter 08
00:44:28.624                : Chapter 09
00:50:39.661                : Chapter 10
00:55:06.511                : Chapter 11
01:00:41.596                : Chapter 12
01:05:43.648                : Chapter 13
01:10:56.001                : Chapter 14
01:17:43.325                : Chapter 15
01:24:47.957                : Chapter 16
01:28:42.483                : Chapter 17
01:34:56.732                : Chapter 18
01:40:47.624                : Chapter 19
01:45:20.981                : Chapter 20












Sharing Widget


No Comments For This Torrent . Be The First to Comment

You must Login to Comment . Click Here to Login

Menu 1

Some content in menu 1.

Beirut 2018 1080p BluRay x264 6ch AAC ~HEVCvideo (Size: 2.6 GB)
  Beirut 2018 1080p BluRay x264 6ch AAC ~HEVCvideo 2.6 GB
tracker name
udp://tracker.leechers-paradise.org:6969/announce
udp://zer0day.ch:1337/announce
udp://open.demonii.com:1337/announce
udp://tracker.coppersurfer.tk:6969/announce
udp://exodus.desync.com:6969/announce
µTorrent compatible trackers list

Relative Torrents

Torrent Name Size Age SEED LEECH
Henry Danger S05E06 720p WEB x264-TBS [etv]
Posted by    EZTVag   in   TV
901.3 MB 4 minutes 602 445
Henry Danger S05E06 720p WEB x264-TBS
Posted by    Trige   in   TV
901.3 MB 4 minutes 440 393
Marvels Avengers-Black Panthers Quest S0E10 720p WEB x264-TBS [eztv]
Posted by    EZTVag   in   TV
514.6 MB 4 minutes 148 672
Henry Danger S05E05 720p WEB x264-TBS [etv]
Posted by    EZTVag   in   TV
494.4 MB 9 minutes 257 246
Marvels Avengers-Black Panthers Quest S0E10 WEB x264-TBS [eztv]
Posted by    EZTVag   in   TV
178.3 MB 9 minutes 404 811