Born Guilty 2017 720p WEB-DL DD5 1 H 264 Torrent Free Download

Seeders : 882   &   Leechers : 214      13-05-2018 (7 months)
Born Guilty 2017 720p WEB-DL DD5 1 H 264 Torrent Download
Added: ago by dmd12 ***** in Movies   3.2 GB   Hits : 35
Info Hash: C78302D2E89D2AEA56D981A1C541AE10A5F12790 Download
Born Guilty 2017 720p WEB-DL DD5 1 H 264 Torrent Download

Anonymous and Direct Download movies , software , shows...

Fast Safe Anonymous
movies, software, shows...
Born Guilty
Comedy /Drama /Romance  .   101 min   3.8/10
Director : Max Heller  
Writer: Max Heller  
Tags: Born  Guilty  2017  720p  WEB-DL  DD5  

Released:
11 May 2018
Judith is a lonely and frazzled social worker who can't resist the urge to interfere in her son Marty's life. When Marty hires his free-spirited friend to cheer up his mother, it soon turns into a serious romance that no one saw coming.

Torrent Description






Code:

General
Unique ID : 2293354840703484204502573910316853451 (0x1B9AF1F9C2E8F2C51F698762F00A8CB)
Complete name : Born.Guilty.2017.720p.WEB-DL.DD5.1.H.264.CRO-DIAMOND.mkv
Format : Matroska
Format version : Version 4 / Version 2
File size : 3.23 GiB
Duration : 1h 43mn
Overall bit rate : 4 482 Kbps
Movie name : CRO DIAMOND 1080p
Encoded date : UTC 2018-05-12 21:53:51
Writing application : mkvmerge v22.0.0 ('At The End Of The World') 64-bit
Writing library : libebml v1.3.5 + libmatroska v1.4.8
DURATION : 01:43:13.454000000
NUMBER_OF_FRAMES : 2311
NUMBER_OF_BYTES : 67981
_STATISTICS_WRITING_APP : mkvmerge v22.0.0 ('At The End Of The World') 64-bit
_STATISTICS_WRITING_DATE_UTC : 2018-05-12 21:53:51
_STATISTICS_TAGS : BPS DURATION NUMBER_OF_FRAMES NUMBER_OF_BYTES

Video
ID : 1
Format : AVC
Format/Info : Advanced Video Codec
Format profile : [email protected]
Format settings, CABAC : No
Format settings, ReFrames : 2 frames
Codec ID : V_MPEG4/ISO/AVC
Duration : 1h 43mn
Bit rate : 4 009 Kbps
Width : 1 280 pixels
Height : 532 pixels
Display aspect ratio : 2.40:1
Frame rate mode : Constant
Frame rate : 23.976 fps
Color space : YUV
Chroma subsampling : 4:2:0
Bit depth : 8 bits
Scan type : Progressive
Bits/(Pixel*Frame) : 0.246
Stream size : 2.89 GiB (89%)
Title : CRO DIAMOND 1080p
Language : English
Default : Yes
Forced : No
Color range : Limited
Color primaries : BT.709
Transfer characteristics : BT.709
Matrix coefficients : BT.709

Audio
ID : 2
Format : AC-3
Format/Info : Audio Coding 3
Mode extension : CM (complete main)
Format settings, Endianness : Big
Codec ID : A_AC3
Duration : 1h 43mn
Bit rate mode : Constant
Bit rate : 384 Kbps
Channel(s) : 6 channels
Channel positions : Front: L C R, Side: L R, LFE
Sampling rate : 48.0 KHz
Compression mode : Lossy
Delay relative to video : -42ms
Stream size : 284 MiB (9%)
Language : English
Default : Yes
Forced : No

Text
ID : 3
Format : UTF-8
Codec ID : S_TEXT/UTF8
Codec ID/Info : UTF-8 Plain Text
Language : English
Default : Yes
Forced : No

Menu
00:00:00.000 : en:1
00:12:33.128 : en:2
00:25:06.089 : en:3
00:34:33.364 : en:4
00:43:57.553 : en:5
00:53:44.598 : en:6
01:05:36.476 : en:7
01:15:50.631 : en:8
01:26:35.817 : en:9
01:40:05.001 : en:10




Sharing Widget


No Comments For This Torrent . Be The First to Comment

You must Login to Comment . Click Here to Login

Menu 1

Some content in menu 1.

Born Guilty 2017 720p WEB-DL DD5 1 H 264 CRO-DIAMOND (Size: 3.2 GB)
  Born Guilty 2017 720p WEB-DL DD5 1 H 264 CRO-DIAMOND 3.2 GB
tracker name
udp://tracker.leechers-paradise.org:6969/announce
udp://zer0day.ch:1337/announce
udp://open.demonii.com:1337/announce
udp://tracker.coppersurfer.tk:6969/announce
udp://exodus.desync.com:6969/announce
µTorrent compatible trackers list

Relative Torrents

Torrent Name Size Age SEED LEECH
Life Itself 2018 BDRip X264-AMIABLE[EtMoies]
Posted by    EtHD   in   Movies
568.7 MB 5 minutes 605 164
Life Itself 2018 BRRip AC3 X264-CMRG[TGx
Posted by    mazemaze16   in   Movies
1.7 GB 5 minutes 875 655
Life Itself 2018 BRRip AC3 X264-CMRG[EtMvies]
Posted by    EtHD   in   Movies
1.7 GB 5 minutes 984 826
A Bad Moms Christmas (2017) x 800 (1080p 5 1 - 2 0 x264 Phun Psyz
Posted by    PhunPsyz   in   Movies
2.0 GB 8 minutes 308 470
Life Itself 2018 BDRip X264-AMIABLE[TGx]
Posted by    mazemaze16   in   Movies
558.7 MB 11 minutes 171 260