Class Rank 2017 1080p WEB-DL DD5 1 H 264 Torrent Free Download

Seeders : 231   &   Leechers : 113      13-05-2018 (7 months)
Class Rank 2017 1080p WEB-DL DD5 1 H 264 Torrent Download
Added: ago by dmd12 ***** in Movies   4.1 GB   Hits : 34
Info Hash: 78C601DE880CAB5782021741E63E5893386C64A2 Download
Class Rank 2017 1080p WEB-DL DD5 1 H 264 Torrent Download

Anonymous and Direct Download movies , software , shows...

Fast Safe Anonymous
movies, software, shows...
Class Rank
Comedy /Family /Romance  .   108 min   6.4/10
Director : Eric Stoltz  
Writer: Benjamin August  
Tags: Class  Rank  2017  1080p  WEB-DL  DD5  

Released:
11 May 2018
Two high school outsiders join forces in an attempt to overtake the local school board. Guided by their families, they enter the perilous word of politics and, in the process, learn a thing or two about love.

Torrent Description






Code:

General
Unique ID : 311562636108289708705038168632783925115 (0xEA64C7F2747323C63E65F276A489EF7B)
Complete name : Class.Rank.2017.1080p.WEB-DL.DD5.1.H.264.CRO-DIAMOND.mkv
Format : Matroska
Format version : Version 4 / Version 2
File size : 4.07 GiB
Duration : 1h 42mn
Overall bit rate : 5 656 Kbps
Movie name : CRO DIAMOND 1080p
Encoded date : UTC 2018-05-11 18:01:21
Writing application : mkvmerge v22.0.0 ('At The End Of The World') 64-bit
Writing library : libebml v1.3.5 + libmatroska v1.4.8
DURATION : 01:36:02.223000000
NUMBER_OF_FRAMES : 1476
NUMBER_OF_BYTES : 49598
_STATISTICS_WRITING_APP : mkvmerge v22.0.0 ('At The End Of The World') 64-bit
_STATISTICS_WRITING_DATE_UTC : 2018-05-11 18:01:21
_STATISTICS_TAGS : BPS DURATION NUMBER_OF_FRAMES NUMBER_OF_BYTES

Video
ID : 1
Format : AVC
Format/Info : Advanced Video Codec
Format profile : [email protected]
Format settings, CABAC : Yes
Format settings, ReFrames : 4 frames
Codec ID : V_MPEG4/ISO/AVC
Duration : 1h 42mn
Bit rate : 5 160 Kbps
Width : 1 920 pixels
Height : 1 080 pixels
Display aspect ratio : 16:9
Frame rate mode : Constant
Frame rate : 23.976 fps
Color space : YUV
Chroma subsampling : 4:2:0
Bit depth : 8 bits
Scan type : Progressive
Bits/(Pixel*Frame) : 0.104
Stream size : 3.71 GiB (91%)
Title : CRO DIAMOND 1080p
Language : English
Default : Yes
Forced : No
Color range : Limited
Color primaries : BT.709
Transfer characteristics : BT.709
Matrix coefficients : BT.709

Audio
ID : 2
Format : AC-3
Format/Info : Audio Coding 3
Mode extension : CM (complete main)
Format settings, Endianness : Big
Codec ID : A_AC3
Duration : 1h 42mn
Bit rate mode : Constant
Bit rate : 384 Kbps
Channel(s) : 6 channels
Channel positions : Front: L C R, Side: L R, LFE
Sampling rate : 48.0 KHz
Compression mode : Lossy
Delay relative to video : -42ms
Stream size : 283 MiB (7%)
Language : English
Default : Yes
Forced : No

Text
ID : 3
Format : UTF-8
Codec ID : S_TEXT/UTF8
Codec ID/Info : UTF-8 Plain Text
Language : English
Default : Yes
Forced : No

Menu
00:00:00.000 : en:Ceâ\u20ac\u2122st La Vie
00:05:43.009 : en:To Do List
00:13:04.784 : en:This Is a Hybrid
00:19:05.686 : en:Tandem
00:24:17.497 : en:Arab Spring in Livingston
00:34:12.675 : en:Shuffleboard
00:40:47.486 : en:Bernard Wants Your Vote
00:46:19.651 : en:Welcome to â\u20ac\u02dcNam
00:52:13.338 : en:Dagger in the Back
00:56:55.328 : en:Lithuania in the Spring
01:04:21.232 : en:Debate Prep
01:10:38.400 : en:Lincoln-Douglas
01:17:06.454 : en:You Captured My Essence
01:24:23.641 : en:Hot Quiche
01:29:41.208 : en:Election Returns
01:36:51.555 : en:Credits




Sharing Widget


No Comments For This Torrent . Be The First to Comment

You must Login to Comment . Click Here to Login

Menu 1

Some content in menu 1.

Class Rank 2017 1080p WEB-DL DD5 1 H 264 CRO-DIAMOND (Size: 4.1 GB)
  Class Rank 2017 1080p WEB-DL DD5 1 H 264 CRO-DIAMOND 4.1 GB
tracker name
udp://tracker.leechers-paradise.org:6969/announce
udp://zer0day.ch:1337/announce
udp://open.demonii.com:1337/announce
udp://tracker.coppersurfer.tk:6969/announce
udp://exodus.desync.com:6969/announce
µTorrent compatible trackers list

Relative Torrents

Torrent Name Size Age SEED LEECH
The Festival 2018 BRRip XviD AC3 With Saple LLG
Posted by    LifeLongg   in   Movies
1.1 GB 5 minutes 308 543
United Passions 2014 720p BluRay x264-SPiNTER
Posted by    Trige   in   Movies
4.4 GB 5 minutes 368 712
United Passions 2014 720p BluRay H264 AA
Posted by    Trige   in   Movies
1.3 GB 8 minutes 831 240
Best Places to Pig Out S01E01 Pizza PorkPancakes WEB x264-CAFFEiNE[TGx]
Posted by    mazemaze16   in   TV
353.4 MB 11 minutes 383 449
Auntie Edna (2018) [BluRay] [1080p] [YTS [YIFY]
Posted by    YTSAGx   in   Movies
84.0 MB 14 minutes 515 234