Game of Thrones - Das Lied von Eis und F Torrent Free Download

Seeders : 280   &   Leechers : 645      11-11-2018 (1 week)
Game of Thrones - Das Lied von Eis und F Torrent Download
Added: ago by tiaeochoa ***** in TV   201.6 MB   Hits : 22
Info Hash: 8A743DC894AF8540E5F130F8EE15D36D680136A3 Download
Game of Thrones - Das Lied von Eis und F Torrent Download

Anonymous and Direct Download movies , software , shows...

Fast Safe Anonymous
movies, software, shows...

Torrent Description



www.movieow.me



Format : MPEG-4
Format profile : Base Media
Codec ID : isom (isom/avc1)
File size : 202 MiB
Duration : 52 min 35 s
Overall bit rate mode : Variable
Overall bit rate : 536 kb/s
Movie name : www.movieow.me
Encoded date : UTC 2011-06-20 04:10:08
Tagged date : UTC 2011-06-20 04:10:08
Comment : www.movieow.me

Video
ID : 2
Format : AVC
Format/Info : Advanced Video Codec
Format profile : [email protected]
Format settings : CABAC / 4 Ref Frames
Format settings, CABAC : Yes
Format settings, RefFrames : 4 frames
Codec ID : avc1
Codec ID/Info : Advanced Video Coding
Duration : 52 min 35 s
Bit rate : 487 kb/s
Maximum bit rate : 9 758 kb/s
Width : 720 pixels
Height : 400 pixels
Display aspect ratio : 16:9
Frame rate mode : Constant
Frame rate : 23.976 (24000/1001) FPS
Original frame rate : 23.976 (23976/1000) FPS
Color space : YUV
Chroma subsampling : 4:2:0
Bit depth : 8 bits
Scan type : Progressive
Bits/(Pixel*Frame) : 0.071
Stream size : 184 MiB (91%)
Writing library : x264 core 115 r1995 c1e60b9
Encoding settings : cabac=1 / ref=5 / deblock=1:0:0 / analyse=0x3:0x113 / me=hex / subme=7 / psy=0 / mixed_ref=1 / me_range=16 / chroma_me=1 / trellis=1 / 8x8dct=1 / cqm=0 / deadzone=21,11 / fast_pskip=1 / chroma_qp_offset=0 / threads=16 / sliced_threads=0 / nr=0 / decimate=1 / interlaced=0 / bluray_compat=0 / constrained_intra=0 / bframes=16 / b_pyramid=1 / b_adapt=1 / b_bias=0 / direct=1 / weightb=1 / open_gop=0 / weightp=2 / keyint=250 / keyint_min=25 / scenecut=40 / intra_refresh=0 / rc_lookahead=40 / rc=2pass / mbtree=1 / bitrate=487 / ratetol=1.0 / qcomp=0.60 / qpmin=0 / qpmax=69 / qpstep=4 / cplxblur=20.0 / qblur=0.5 / ip_ratio=1.40 / aq=2:1.00
Encoded date : UTC 2011-06-20 04:10:21
Tagged date : UTC 2011-06-20 04:11:09
Codec configuration box : avcC

Audio
ID : 1
Format : AAC LC SBR
Format/Info : Advanced Audio Codec Low Complexity with Spectral Band Replication
Commercial name : HE-AAC
Format settings : Implicit
Codec ID : mp4a-40-2
Duration : 52 min 35 s
Bit rate mode : Variable
Bit rate : 44.9 kb/s
Maximum bit rate : 55.4 kb/s
Channel(s) : 2 channels
Channel layout : L R
Sampling rate : 48.0 kHz
Frame rate : 23.438 FPS (2048 SPF)
Compression mode : Lossy
Stream size : 16.9 MiB (8%)
Encoded date : UTC 2011-06-20 04:10:08
Tagged date : UTC 2011-06-20 04:11:09




Sharing Widget


No Comments For This Torrent . Be The First to Comment

You must Login to Comment . Click Here to Login

Menu 1

Some content in menu 1.

Game of Thrones - Das Lied von Eis und Feuer S01E010 TVrip[MovieOW] (Size: 201.6 MB)
  Game of Thrones - Das Lied von Eis und Feuer S01E010 TVrip[MovieOW] 201.6 MB
tracker name
udp://tracker.leechers-paradise.org:6969/announce
udp://zer0day.ch:1337/announce
udp://open.demonii.com:1337/announce
udp://tracker.coppersurfer.tk:6969/announce
udp://exodus.desync.com:6969/announce
µTorrent compatible trackers list

Relative Torrents

Torrent Name Size Age SEED LEECH
Marvels Avengers-Black Panthers Quest S0E10 480p x264-mSD [eztv]
Posted by    EZTVag   in   TV
62.6 MB 35 seconds 150 645
QI XL_P S16E06 Pictures revittony
Posted by    revittony   in   TV
540.8 MB 35 seconds 112 196
The Offroad Adventure Show S05E03 WEB H24-FLX [eztv]
Posted by    EZTVag   in   TV
364.8 MB 35 seconds 672 907
Windows 7 AIO SP1 x86 aggiornato a Novemre 2018 ITA
Posted by    DDAnonymous   in   Applications
2.5 GB 36 seconds 409 540
Henry Danger S05E06 720p WEB x264-TBS [etv]
Posted by    EZTVag   in   TV
901.3 MB 5 minutes 602 445