Laila Majnu 2018 Hindi 1080p WEB-DL x264 Torrent Free Download

Seeders : 107   &   Leechers : 661      11-11-2018 (1 week)
Laila Majnu 2018 Hindi 1080p WEB-DL x264 Torrent Download
Added: ago by moviezworldz ***** in Movies   1.8 GB   Hits : 19
Info Hash: FFFE9932E6B84DE6C22F458627C06DC45A5EF275 Download
Laila Majnu 2018 Hindi 1080p WEB-DL x264 Torrent Download

Anonymous and Direct Download movies , software , shows...

Fast Safe Anonymous
movies, software, shows...
Laila Majnu
Drama /Romance  .   140 min   8.3/10
Director : Sajid Ali  
Writer: Imtiaz Ali  Sajid Ali  
Tags: Laila  Majnu  2018  Hindi  1080p  WEB-DL  

Released:
07 Sep 2018
Taking the leap out of the classic folklore, the story is set in today's time in Kashmir where Laila Majnu have problems relevant to the youth of today. While dealing with their feuding families a passionate love story unravels.

Torrent Description







General
Format : Matroska
Format version : Version 4 / Version 2
File size : 1.83 GiB
Duration : 2 h 12 min
Overall bit rate : 1 981 kb/s

Video
ID : 1
Format : AVC
Format/Info : Advanced Video Codec
Format profile : [email protected]
Format settings : CABAC / 4 Ref Frames
Format settings, CABAC : Yes
Format settings, RefFrames : 4 frames
Codec ID : V_MPEG4/ISO/AVC
Duration : 2 h 12 min
Bit rate : 1 850 kb/s
Width : 1 920 pixels
Height : 816 pixels
Display aspect ratio : 2.35:1
Frame rate mode : Constant
Frame rate : 25.000 FPS
Color space : YUV
Chroma subsampling : 4:2:0
Bit depth : 8 bits
Scan type : Progressive
Bits/(Pixel*Frame) : 0.047
Stream size : 1.71 GiB (93%)
Writing library : x264 core 155 r2901 7d0ff22
Default : Yes
Forced : No

Audio
ID : 2
Format : AAC
Format/Info : Advanced Audio Codec
Format profile : LC
Codec ID : A_AAC-2
Duration : 2 h 12 min
Bit rate : 127 kb/s
Channel(s) : 2 channels
Channel positions : Front: L R
Sampling rate : 48.0 kHz
Frame rate : 46.875 FPS (1024 SPF)
Compression mode : Lossy
Stream size : 120 MiB (6%)
Language : Hindi
Default : Yes
Forced : No


Click To View Image










Sharing Widget


No Comments For This Torrent . Be The First to Comment

You must Login to Comment . Click Here to Login

Menu 1

Some content in menu 1.

Laila Majnu 2018 Hindi 1080p WEB-DL x264 [MW] (Size: 1.8 GB)
  Laila Majnu 2018 Hindi 1080p WEB-DL x264 [MW] 1.8 GB
tracker name
udp://tracker.leechers-paradise.org:6969/announce
udp://zer0day.ch:1337/announce
udp://open.demonii.com:1337/announce
udp://tracker.coppersurfer.tk:6969/announce
udp://exodus.desync.com:6969/announce
µTorrent compatible trackers list

Relative Torrents

Torrent Name Size Age SEED LEECH
Kentucky Ayahuasca S01E01 Taylor Jose an Summer WEB x264-CAFFEiNE [eztv]
Posted by    EZTVag   in   TV
367.6 MB 1 minute 315 834
Beyond The Sky 2018 BluRay 1080p x264 DT-HD MA5 1-DTOne
Posted by    SaM   in   Movies
7.8 GB 12 minutes 171 639
The Ballad Of Buster Scruggs 2018 1080p F WebDL AVC DD 5 1-DTOne
Posted by    SaM   in   Movies
5.6 GB 15 minutes 102 518
Boarding School 2018 1080 Bluray x264 DT-HDMA 5 1-DTOne
Posted by    SaM   in   Movies
10.5 GB 18 minutes 491 560
In Darkness 2018 1080 Bluray x264 DTS-HDA 5 1-DTOne
Posted by    SaM   in   Movies
9.2 GB 18 minutes 802 977