Laila Majnu 2018 Hindi 720p WEB-DL x264 Torrent Free Download

Seeders : 9   &   Leechers : 856      11-11-2018 (1 week)
Laila Majnu 2018 Hindi 720p WEB-DL x264 Torrent Download
Added: ago by moviezworldz ***** in Movies   1.0 GB   Hits : 20
Info Hash: A60CB8817950809B519D12956A80FA71E712E96E Download
Laila Majnu 2018 Hindi 720p WEB-DL x264 Torrent Download

Anonymous and Direct Download movies , software , shows...

Fast Safe Anonymous
movies, software, shows...
Laila Majnu
Drama /Romance  .   140 min   8.3/10
Director : Sajid Ali  
Writer: Imtiaz Ali  Sajid Ali  
Tags: Laila  Majnu  2018 Hindi  720p  WEB-DL  x264  

Released:
07 Sep 2018
Taking the leap out of the classic folklore, the story is set in today's time in Kashmir where Laila Majnu have problems relevant to the youth of today. While dealing with their feuding families a passionate love story unravels.

Torrent Description







General
Format : Matroska
Format version : Version 4 / Version 2
File size : 1.04 GiB
Duration : 2 h 12 min
Overall bit rate : 1 126 kb/s

Video
ID : 1
Format : AVC
Format/Info : Advanced Video Codec
Format profile : [email protected]
Format settings : CABAC / 4 Ref Frames
Format settings, CABAC : Yes
Format settings, RefFrames : 4 frames
Codec ID : V_MPEG4/ISO/AVC
Duration : 2 h 12 min
Bit rate : 1 000 kb/s
Width : 1 280 pixels
Height : 544 pixels
Display aspect ratio : 2.35:1
Frame rate mode : Constant
Frame rate : 25.000 FPS
Color space : YUV
Chroma subsampling : 4:2:0
Bit depth : 8 bits
Scan type : Progressive
Bits/(Pixel*Frame) : 0.057
Stream size : 941 MiB (89%)
Writing library : x264 core 155 r2901 7d0ff22
Default : Yes
Forced : No

Audio
ID : 2
Format : AAC
Format/Info : Advanced Audio Codec
Format profile : LC
Codec ID : A_AAC-2
Duration : 2 h 12 min
Bit rate : 127 kb/s
Channel(s) : 2 channels
Channel positions : Front: L R
Sampling rate : 48.0 kHz
Frame rate : 46.875 FPS (1024 SPF)
Compression mode : Lossy
Stream size : 120 MiB (11%)
Language : Hindi
Default : Yes
Forced : No


Click To View Image










Sharing Widget


No Comments For This Torrent . Be The First to Comment

You must Login to Comment . Click Here to Login

Menu 1

Some content in menu 1.

Laila Majnu 2018 Hindi 720p WEB-DL x264 [MW] (Size: 1.0 GB)
  Laila Majnu 2018 Hindi 720p WEB-DL x264 [MW] 1.0 GB
tracker name
udp://tracker.leechers-paradise.org:6969/announce
udp://zer0day.ch:1337/announce
udp://open.demonii.com:1337/announce
udp://tracker.coppersurfer.tk:6969/announce
udp://exodus.desync.com:6969/announce
µTorrent compatible trackers list

Relative Torrents

Torrent Name Size Age SEED LEECH
Mickey Mouse Clubhouse S02E22 720p WEB x64-CRiMSON [eztv]
Posted by    EZTVag   in   TV
330.8 MB 4 minutes 951 280
Mickey Mouse Clubhouse S02E23 720p WEB x64-CRiMSON [eztv]
Posted by    EZTVag   in   TV
540.6 MB 4 minutes 343 822
Mickey Mouse Clubhouse S02E25 720p WEB x64-CRiMSON [eztv]
Posted by    EZTVag   in   TV
330.7 MB 4 minutes 962 943
Mickey Mouse Clubhouse S02E26 720p WEB x64-CRiMSON [eztv]
Posted by    EZTVag   in   TV
346.0 MB 4 minutes 201 869
The Pioneer Woman S20E00 Best of Drummon Family Favorites WEB x264-CAFFEiNE [ez
Posted by    EZTVag   in   TV
272.7 MB 4 minutes 27 489