MasterChef (UK) The Professionals S11E03 Torrent Free Download

Seeders : 779   &   Leechers : 746      09-11-2018 (1 week)
MasterChef (UK) The Professionals S11E03 Torrent Download
Added: ago by ElsonRoa ***** in TV   2.2 GB   Hits : 34
Info Hash: 0F5E11C7512DC01E1B347C8E3BE0B525E09B57F9 Download
MasterChef (UK) The Professionals S11E03 Torrent Download

Anonymous and Direct Download movies , software , shows...

Fast Safe Anonymous
movies, software, shows...
Masterchef
Game-Show /Reality-TV  .   42 min   7.3/10
Director : N/A  
Tags: MasterChef  (UK)  The  Professionals  S11E03  (1280x720p  

Released:
27 Jul 2010
A nationwide search for the best home cooks in America. One of 50 hopefuls will become a culinary star and one of America's "Masterchefs."

Torrent Description



MasterChef (UK) The Professionals S11E03 (1280x720p HD, 50fps, soft Eng subs)

Celebrated MasterChef presenter Gregg Wallace, chef Monica Galetti and two-Michelin-starred Marcus Wareing are together searching for the UK's finest cooking talent. Over seven weeks, 48 professionals will face the rigours of the MasterChef kitchen before one chef is crowned culinary superstar of 2018.

In this first quarter final, the six strongest chefs from the first two heats attempt to impress Monica and Marcus in two high-stakes challenges. First up the chefs face a brand-new challenge - the Judges' Favourite Ingredient Test. The six chefs are challenged to invent a dish centred around one key ingredient. This week Monica has selected coconut - an all-time favourite of hers, so the chefs will be under pressure to use it to best effect in their cooking. With a whole range of ingredients to choose from the six chefs must deliver a plate of food that displays their own unique take on how to highlight this versatile flavour, whilst also maintaining perfect balance. With 10 minutes to select the ingredients and 70 minutes to cook, there's a lot riding on this plate. Only the four strongest chefs will go on to the next challenge, to cook for the restaurant critics, for two chefs it's the end of the competition.

The remaining four professionals go on to cook their food for three of the UK's most discerning restaurant critics. They will need to impress William Sitwell, Tracey MacLeod, and Grace Dent. The critics judgement is unrestrained and often ranges from delight to disdain, all dependent on the food they are served. The chefs are given one hour 15 minutes to showcase their culinary prowess with a two-course menu designed to dazzle the critics and the judges and keep them in the competition.

Only the three most talented chefs will go through to Knockout Week and continue in their pursuit of the title.

First broadcast: 8 November 2018
Duration: 1 hour

Torrent dead? Request reseed at 1337x.to or torrentgalaxy.org - or ask at elsonroa at tutanota.com



Media info:-
General
Format : MPEG-4
Format profile : Base Media
Codec ID : isom (isom/iso2/avc1/mp41)
File size : 2.15 GiB
Duration : 58mn 11s
Overall bit rate mode : Variable
Overall bit rate : 5 298 Kbps
Writing application : Lavf57.83.100

Video
ID : 1
Format : AVC
Format/Info : Advanced Video Codec
Format profile : [email protected]
Format settings, CABAC : Yes
Format settings, ReFrames : 4 frames
Codec ID : avc1
Codec ID/Info : Advanced Video Coding
Duration : 58mn 11s
Bit rate : 4 973 Kbps
Width : 1 280 pixels
Height : 720 pixels
Display aspect ratio : 16:9
Frame rate mode : Constant
Frame rate : 50.000 fps
Color space : YUV
Chroma subsampling : 4:2:0
Bit depth : 8 bits
Scan type : Progressive
Bits/(Pixel*Frame) : 0.108
Stream size : 2.02 GiB (94%)
Encoded date : UTC 1904-01-01 00:00:00
Tagged date : UTC 1904-01-01 00:00:00
Color range : Limited
Color primaries : BT.709
Transfer characteristics : BT.709
Matrix coefficients : BT.709

Audio
ID : 2
Format : AAC
Format/Info : Advanced Audio Codec
Format profile : LC
Codec ID : 40
Duration : 58mn 11s
Bit rate mode : Variable
Bit rate : 317 Kbps
Maximum bit rate : 356 Kbps
Channel(s) : 2 channels
Channel positions : Front: L R
Sampling rate : 48.0 KHz
Frame rate : 46.875 fps (1024 spf)
Compression mode : Lossy
Stream size : 132 MiB (6%)




Sharing Widget


No Comments For This Torrent . Be The First to Comment

You must Login to Comment . Click Here to Login

Menu 1

Some content in menu 1.

MasterChef (UK) The Professionals S11E03 (1280x720p HD, 50fps, soft En (Size: 2.2 GB)
  MasterChef (UK) The Professionals S11E03 (1280x720p HD, 50fps, soft En 2.2 GB
tracker name
udp://tracker.leechers-paradise.org:6969/announce
udp://zer0day.ch:1337/announce
udp://open.demonii.com:1337/announce
udp://tracker.coppersurfer.tk:6969/announce
udp://exodus.desync.com:6969/announce
µTorrent compatible trackers list

Relative Torrents

Torrent Name Size Age SEED LEECH
Stratton (2017) UNCUT 720p Blu-Ray x264 sub [Dual Audio] [Hindi DTH 2 0 - Engli
Posted by    DESIRE123   in   Movies
1.0 GB 1 minute 686 488
On the Case with Paula Zahn S17E17 A Fac and A Voice 720p WEB x264-CAFFEiNE
Posted by    Trige   in   TV
974.7 MB 6 minutes 867 835
On the Case with Paula Zahn S17E17 A Fac and A Voice 1080p WEB x264-CAFFEiNE
Posted by    Trige   in   TV
1.5 GB 6 minutes 70 543
The Little Drummer Girl S01E04 Episode 4720p AMZN WEB-DL DDP5 1 H 264-NTG [eztv
Posted by    EZTVag   in   TV
1.3 GB 6 minutes 706 249
The Princess Switch (2018) [WEBRip] [108p] [YTS] [YIFY]
Posted by    YTSAGx   in   Movies
1.6 GB 16 minutes 558 865