Mitron 2018 Hindi 1080p WEB-DL DD 5 1 x2 Torrent Free Download

Seeders : 297   &   Leechers : 602      11-11-2018 (1 week)
Mitron 2018 Hindi 1080p WEB-DL DD 5 1 x2 Torrent Download
Added: ago by moviezworldz ***** in Movies   1.9 GB   Hits : 20
Info Hash: 86DDD1038B10CCB57A302B3C948634B28BE46A7C Download
Mitron 2018 Hindi 1080p WEB-DL DD 5 1 x2 Torrent Download

Anonymous and Direct Download movies , software , shows...

Fast Safe Anonymous
movies, software, shows...
Mitron
Comedy   .   N/A   N/A/10
Director : Nitin Kakkar  
Tags: Mitron  2018  Hindi  1080p  WEB-DL  DD  

Released:
14 Sep 2018
Jai "Jackky Bhagnani", born and brought up with middle-class values, has a 'take it easy' approach to life. Since he doesn't believe in a herd mentality, he and his two best friends, Raunak...

Torrent Description







General
Format : Matroska
Format version : Version 4 / Version 2
File size : 1.85 GiB
Duration : 1 h 56 min
Overall bit rate : 2 284 kb/s

Video
ID : 1
Format : AVC
Format/Info : Advanced Video Codec
Format profile : [email protected]
Format settings : CABAC / 4 Ref Frames
Format settings, CABAC : Yes
Format settings, RefFrames : 4 frames
Codec ID : V_MPEG4/ISO/AVC
Duration : 1 h 56 min
Bit rate : 1 898 kb/s
Nominal bit rate : 1 800 kb/s
Width : 1 920 pixels
Height : 816 pixels
Display aspect ratio : 2.35:1
Frame rate mode : Constant
Frame rate : 24.000 FPS
Color space : YUV
Chroma subsampling : 4:2:0
Bit depth : 8 bits
Scan type : Progressive
Bits/(Pixel*Frame) : 0.050
Stream size : 1.54 GiB (83%)
Writing library : x264 core 155 r2901 7d0ff22
Default : Yes
Forced : No

Audio
ID : 2
Format : AC-3
Format/Info : Audio Coding 3
Codec ID : A_AC3
Duration : 1 h 56 min
Bit rate mode : Constant
Bit rate : 384 kb/s
Channel(s) : 6 channels
Channel positions : Front: L C R, Side: L R, LFE
Sampling rate : 48.0 kHz
Frame rate : 31.250 FPS (1536 SPF)
Bit depth : 16 bits
Compression mode : Lossy
Stream size : 319 MiB (17%)
Language : Hindi
Service kind : Complete Main
Default : Yes
Forced : No


Click To View Image










Sharing Widget


No Comments For This Torrent . Be The First to Comment

You must Login to Comment . Click Here to Login

Menu 1

Some content in menu 1.

Mitron 2018 Hindi 1080p WEB-DL DD 5 1 x264 [MW] (Size: 1.9 GB)
  Mitron 2018 Hindi 1080p WEB-DL DD 5 1 x264 [MW] 1.9 GB
tracker name
udp://tracker.leechers-paradise.org:6969/announce
udp://zer0day.ch:1337/announce
udp://open.demonii.com:1337/announce
udp://tracker.coppersurfer.tk:6969/announce
udp://exodus.desync.com:6969/announce
µTorrent compatible trackers list

Relative Torrents

Torrent Name Size Age SEED LEECH
Henry Danger S05E06 720p WEB x264-TBS [etv]
Posted by    EZTVag   in   TV
901.3 MB 4 minutes 602 445
Star Wars Resistance S01E07 XviD-AFG [ezv]
Posted by    EZTVag   in   TV
259.3 MB 4 minutes 899 471
Henry Danger S05E06 720p WEB x264-TBS
Posted by    Trige   in   TV
901.3 MB 4 minutes 440 393
Marvels Avengers-Black Panthers Quest S0E10 720p WEB x264-TBS [eztv]
Posted by    EZTVag   in   TV
514.6 MB 4 minutes 148 672
Night of the Demons 1988 REMASTERED BRRi XviD MP3-XVID
Posted by    Trige   in   Movies
1.1 GB 8 minutes 325 401