Ozark (2017) Season 2 S02 (1080p NF WEBR Torrent Free Download

Seeders : 178   &   Leechers : 277      11-11-2018 (1 week)
Ozark (2017) Season 2 S02 (1080p NF WEBR Torrent Download
Added: ago by QxR ***** in TV   14.3 GB   Hits : 24
Info Hash: 0214B604943DE78EF84600CE8BD12F5771935FB7 Download
Ozark (2017) Season 2 S02 (1080p NF WEBR Torrent Download

Anonymous and Direct Download movies , software , shows...

Fast Safe Anonymous
movies, software, shows...
Ozark
Crime /Drama /Thriller  .   60 min   8.4/10
Director : N/A  
Writer: Bill Dubuque  Mark Williams  
Tags: Ozark  (2017)  Season  2  S02  (1080p  

Released:
21 Jul 2017
The Byrdes and their teenage kids, Charlotte and Jonah, are, for all intents and purposes, an ordinary family with ordinary lives. Except for the job of Marty, a Chicago financial advisor who also serves as the top money launderer for the second largest drug cartel.... See More in Mexico. When things go awry, Marty must uproot his family from the skyscrapers of Chicago and relocate to the lazy lake region of the Missouri Ozarks.

Torrent Description





http://www.imdb.com/title/tt5071412/





Media Information

Code:

General
Format : Matroska
Format version : Version 4 / Version 2
File size : 1.30 GiB
Duration : 1 h 0 min
Overall bit rate : 3 073 kb/s
Encoded date : UTC 2018-11-08 05:16:57
Writing application : mkvmerge v27.0.0 ('Metropolis') 64-bit
Writing library : libebml v1.3.6 + libmatroska v1.4.9

Video
ID : 1
Format : HEVC
Format/Info : High Efficiency Video Coding
Format profile : Main [email protected]@Main
Codec ID : V_MPEGH/ISO/HEVC
Duration : 1 h 0 min
Bit rate : 2 428 kb/s
Width : 1 920 pixels
Height : 960 pixels
Display aspect ratio : 2.000
Frame rate mode : Constant
Frame rate : 23.976 (24000/1001) FPS
Color space : YUV
Chroma subsampling : 4:2:0
Bit depth : 10 bits
Bits/(Pixel*Frame) : 0.055
Stream size : 1.03 GiB (79%)
Writing library : x265 2.9+2-7e978ed93d60:[Windows][GCC 8.2.0][64 bit] 10bit
Encoding settings : cpuid=1111039 / frame-threads=3 / numa-pools=12 / wpp / no-pmode / no-pme / no-psnr / no-ssim / log-level=2 / input-csp=1 / input-res=1920x960 / interlace=0 / total-frames=87081 / level-idc=0 / high-tier=1 / uhd-bd=0 / ref=4 / no-allow-non-conformance / no-repeat-headers / annexb / no-aud / no-hrd / info / hash=0 / no-temporal-layers / open-gop / min-keyint=23 / keyint=250 / gop-lookahead=0 / bframes=8 / b-adapt=2 / b-pyramid / bframe-bias=0 / rc-lookahead=80 / lookahead-slices=4 / scenecut=40 / radl=0 / no-intra-refresh / ctu=64 / min-cu-size=8 / no-rect / no-amp / max-tu-size=32 / tu-inter-depth=1 / tu-intra-depth=1 / limit-tu=0 / rdoq-level=2 / dynamic-rd=0.00 / no-ssim-rd / signhide / no-tskip / nr-intra=0 / nr-inter=0 / no-constrained-intra / strong-intra-smoothing / max-merge=3 / limit-refs=3 / limit-modes / me=3 / subme=5 / merange=57 / temporal-mvp / weightp / weightb / no-analyze-src-pics / deblock=-1:-1 / sao / no-sao-non-deblock / rd=4 / no-early-skip / rskip / no-fast-intra / no-tskip-fast / no-cu-lossless / no-b-intra / no-splitrd-skip / rdpenalty=0 / psy-rd=1.60 / psy-rdoq=1.70 / no-rd-refine / no-lossless / cbqpoffs=0 / crqpoffs=0 / rc=crf / crf=19.0 / qcomp=0.60 / qpstep=4 / stats-write=0 / stats-read=0 / ipratio=1.40 / pbratio=1.30 / aq-mode=3 / aq-strength=1.00 / cutree / zone-count=0 / no-strict-cbr / qg-size=32 / no-rc-grain / qpmax=69 / qpmin=0 / no-const-vbv / sar=0 / overscan=0 / videoformat=5 / range=0 / colorprim=2 / transfer=2 / colormatrix=2 / chromaloc=0 / display-window=0 / max-cll=0,0 / min-luma=0 / max-luma=1023 / log2-max-poc-lsb=8 / vui-timing-info / vui-hrd-info / slices=1 / no-opt-qp-pps / no-opt-ref-list-length-pps / no-multi-pass-opt-rps / scenecut-bias=0.00 / no-opt-cu-delta-qp / aq-motion / no-hdr / no-hdr-opt / no-dhdr10-opt / no-idr-recovery-sei / analysis-reuse-level=5 / scale-factor=0 / refine-intra=0 / refine-inter=0 / refine-mv=0 / no-limit-sao / ctu-info=0 / no-lowpass-dct / refine-mv-type=0 / copy-pic=1 / max-ausize-factor=1.0 / no-dynamic-refine / no-single-sei
Default : Yes
Forced : No

Audio
ID : 2
Format : E-AC-3
Format/Info : Enhanced Audio Coding 3
Format settings, Endianness : Big
Codec ID : A_EAC3
Duration : 1 h 0 min
Bit rate mode : Constant
Bit rate : 640 kb/s
Channel(s) : 6 channels
Channel positions : Front: L C R, Side: L R, LFE
Sampling rate : 48.0 kHz
Frame rate : 187.500 FPS (256 spf)
Compression mode : Lossy
Stream size : 277 MiB (21%)
Language : English
Default : No
Forced : No

Subtitle #1
ID : 3
Format : UTF-8
Codec ID : S_TEXT/UTF8
Codec ID/Info : UTF-8 Plain Text
Duration : 58 min 41 s
Bit rate : 68 b/s
Count of elements : 821
Stream size : 29.4 KiB (0%)
Language : English
Default : No
Forced : No

Subtitle #2
ID : 4
Format : UTF-8
Codec ID : S_TEXT/UTF8
Codec ID/Info : UTF-8 Plain Text
Duration : 55 min 50 s
Bit rate : 104 b/s
Count of elements : 724
Stream size : 42.9 KiB (0%)
Language : Arabic
Default : No
Forced : No

Subtitle #3
ID : 5
Format : UTF-8
Codec ID : S_TEXT/UTF8
Codec ID/Info : UTF-8 Plain Text
Duration : 55 min 50 s
Bit rate : 56 b/s
Count of elements : 722
Stream size : 23.2 KiB (0%)
Language : Chinese
Default : No
Forced : No

Subtitle #4
ID : 6
Format : UTF-8
Codec ID : S_TEXT/UTF8
Codec ID/Info : UTF-8 Plain Text
Duration : 55 min 50 s
Bit rate : 50 b/s
Count of elements : 696
Stream size : 20.8 KiB (0%)
Language : Danish
Default : No
Forced : No

Subtitle #5
ID : 7
Format : UTF-8
Codec ID : S_TEXT/UTF8
Codec ID/Info : UTF-8 Plain Text
Duration : 55 min 50 s
Bit rate : 51 b/s
Count of elements : 666
Stream size : 21.2 KiB (0%)
Language : Dutch
Default : No
Forced : No

Subtitle #6
ID : 8
Format : UTF-8
Codec ID : S_TEXT/UTF8
Codec ID/Info : UTF-8 Plain Text
Duration : 55 min 50 s
Bit rate : 51 b/s
Count of elements : 617
Stream size : 21.0 KiB (0%)
Language : Finnish
Default : No
Forced : No

Subtitle #7
ID : 9
Format : UTF-8
Codec ID : S_TEXT/UTF8
Codec ID/Info : UTF-8 Plain Text
Duration : 55 min 50 s
Bit rate : 55 b/s
Count of elements : 703
Stream size : 22.7 KiB (0%)
Language : French
Default : No
Forced : No

Subtitle #8
ID : 10
Format : UTF-8
Codec ID : S_TEXT/UTF8
Codec ID/Info : UTF-8 Plain Text
Duration : 55 min 50 s
Bit rate : 56 b/s
Count of elements : 661
Stream size : 23.0 KiB (0%)
Language : German
Default : No
Forced : No

Subtitle #9
ID : 11
Format : UTF-8
Codec ID : S_TEXT/UTF8
Codec ID/Info : UTF-8 Plain Text
Duration : 55 min 50 s
Bit rate : 98 b/s
Count of elements : 726
Stream size : 40.3 KiB (0%)
Language : Greek
Default : No
Forced : No

Subtitle #10
ID : 12
Format : UTF-8
Codec ID : S_TEXT/UTF8
Codec ID/Info : UTF-8 Plain Text
Duration : 55 min 50 s
Bit rate : 91 b/s
Count of elements : 723
Stream size : 37.4 KiB (0%)
Language : Hebrew
Default : No
Forced : No

Subtitle #11
ID : 13
Format : UTF-8
Codec ID : S_TEXT/UTF8
Codec ID/Info : UTF-8 Plain Text
Duration : 55 min 50 s
Bit rate : 55 b/s
Count of elements : 705
Stream size : 22.6 KiB (0%)
Language : Indonesian
Default : No
Forced : No

Subtitle #12
ID : 14
Format : UTF-8
Codec ID : S_TEXT/UTF8
Codec ID/Info : UTF-8 Plain Text
Duration : 55 min 50 s
Bit rate : 56 b/s
Count of elements : 715
Stream size : 23.0 KiB (0%)
Language : Italian
Default : No
Forced : No

Subtitle #13
ID : 15
Format : UTF-8
Codec ID : S_TEXT/UTF8
Codec ID/Info : UTF-8 Plain Text
Duration : 55 min 50 s
Bit rate : 48 b/s
Count of elements : 719
Stream size : 19.9 KiB (0%)
Language : Japanese
Default : No
Forced : No

Subtitle #14
ID : 16
Format : UTF-8
Codec ID : S_TEXT/UTF8
Codec ID/Info : UTF-8 Plain Text
Duration : 55 min 50 s
Bit rate : 65 b/s
Count of elements : 723
Stream size : 27.0 KiB (0%)
Language : Korean
Default : No
Forced : No

Subtitle #15
ID : 17
Format : UTF-8
Codec ID : S_TEXT/UTF8
Codec ID/Info : UTF-8 Plain Text
Duration : 55 min 50 s
Bit rate : 55 b/s
Count of elements : 720
Stream size : 22.9 KiB (0%)
Language : Norwegian Bokmal
Default : No
Forced : No

Subtitle #16
ID : 18
Format : UTF-8
Codec ID : S_TEXT/UTF8
Codec ID/Info : UTF-8 Plain Text
Duration : 55 min 50 s
Bit rate : 51 b/s
Count of elements : 702
Stream size : 21.1 KiB (0%)
Language : Polish
Default : No
Forced : No

Subtitle #17
ID : 19
Format : UTF-8
Codec ID : S_TEXT/UTF8
Codec ID/Info : UTF-8 Plain Text
Duration : 55 min 50 s
Bit rate : 60 b/s
Count of elements : 722
Stream size : 24.8 KiB (0%)
Language : Portuguese
Default : No
Forced : No

Subtitle #18
ID : 20
Format : UTF-8
Codec ID : S_TEXT/UTF8
Codec ID/Info : UTF-8 Plain Text
Duration : 55 min 50 s
Bit rate : 56 b/s
Count of elements : 720
Stream size : 23.2 KiB (0%)
Language : Romanian
Default : No
Forced : No

Subtitle #19
ID : 21
Format : UTF-8
Codec ID : S_TEXT/UTF8
Codec ID/Info : UTF-8 Plain Text
Duration : 55 min 50 s
Bit rate : 55 b/s
Count of elements : 705
Stream size : 22.6 KiB (0%)
Language : Swedish
Default : No
Forced : No

Subtitle #20
ID : 22
Format : UTF-8
Codec ID : S_TEXT/UTF8
Codec ID/Info : UTF-8 Plain Text
Duration : 59 min 13 s
Bit rate : 52 b/s
Count of elements : 709
Stream size : 22.9 KiB (0%)
Language : Spanish
Default : No
Forced : No

Subtitle #21
ID : 23
Format : UTF-8
Codec ID : S_TEXT/UTF8
Codec ID/Info : UTF-8 Plain Text
Duration : 55 min 50 s
Bit rate : 145 b/s
Count of elements : 723
Stream size : 59.4 KiB (0%)
Language : Thai
Default : No
Forced : No

Subtitle #22
ID : 24
Format : UTF-8
Codec ID : S_TEXT/UTF8
Codec ID/Info : UTF-8 Plain Text
Duration : 55 min 50 s
Bit rate : 58 b/s
Count of elements : 708
Stream size : 24.0 KiB (0%)
Language : Turkish
Default : No
Forced : No

Source Information

Code:

Release:
Ozark S02 1080p NF WEBRip DD+ 5.1 x264-NTb


Note From QxR:

Quote:

Whilst we are happy for our releases to be re-posted on a platform we aren't on, please do so in an 'as-is' format. We ask that you do not create a new torrent, include all descriptions you see above including the QxR logo, tags, notes and screenshots. If you'd like to become a permanent poster on a website we don't post to, feel free to get in contact with a QxR member.





Sharing Widget


No Comments For This Torrent . Be The First to Comment

You must Login to Comment . Click Here to Login

Menu 1

Some content in menu 1.

Ozark (2017) Season 2 S02 (1080p NF WEBRip x265 HEVC 10bit EAC3 5 1 RZ (Size: 14.3 GB)
  Ozark (2017) Season 2 S02 (1080p NF WEBRip x265 HEVC 10bit EAC3 5 1 RZ 14.3 GB
tracker name
udp://tracker.leechers-paradise.org:6969/announce
udp://zer0day.ch:1337/announce
udp://open.demonii.com:1337/announce
udp://tracker.coppersurfer.tk:6969/announce
udp://exodus.desync.com:6969/announce
µTorrent compatible trackers list

Relative Torrents

Torrent Name Size Age SEED LEECH
Christopher Kimballs Milk Street Televison S02E03 Middle East Classics 720p HDT
Posted by    EZTVag   in   TV
498.5 MB 2 minutes 416 232
Mickey Mouse Clubhouse S02E22 720p WEB x64-CRiMSON [eztv]
Posted by    EZTVag   in   TV
330.8 MB 7 minutes 951 280
Mickey Mouse Clubhouse S02E23 720p WEB x64-CRiMSON [eztv]
Posted by    EZTVag   in   TV
540.6 MB 7 minutes 343 822
Mickey Mouse Clubhouse S02E25 720p WEB x64-CRiMSON [eztv]
Posted by    EZTVag   in   TV
330.7 MB 7 minutes 962 943
Mickey Mouse Clubhouse S02E26 720p WEB x64-CRiMSON [eztv]
Posted by    EZTVag   in   TV
346.0 MB 7 minutes 201 869