Padman (2018) HDRip 720p Hindi H 264 AAC Torrent Free Download

Seeders : 845   &   Leechers : 970      13-05-2018 (7 months)
Padman (2018) HDRip 720p Hindi H 264 AAC Torrent Download
Added: ago by LHDM ***** in Movies   1.3 GB   Hits : 79
Info Hash: 98CC26A1308E2F1B0EA807CF1F4A68DEC0E5CA83 Download
Padman (2018) HDRip 720p Hindi H 264 AAC Torrent Download

Anonymous and Direct Download movies , software , shows...

Fast Safe Anonymous
movies, software, shows...
Padman
Biography /Drama  .   140 min   8.1/10
Director : R. Balki  
Writer: R. Balki  Swanand Kirkire  
Tags: Padman  (2018)  HDRip  720p  Hindi  H  

Released:
09 Feb 2018
Upon realizing the extent to which women are affected by their menses, a man sets out to create a sanitary pad machine and to provide inexpensive sanitary pads to the women of rural India.

Torrent Description








[[>>SAMPLE<<]]
http://oload.stream/f/7-14Ili58ps/vlc-record-2018-05-13-06h26m31s-LatestHDMovies___TeamSHAHID-.mp4








General
Unique ID                   : 300726905313855977605577142205930984842 (0xE23DE52C00D3BDA884B140D5205AD58A)
Complete name               : C:\Users\SHAHID\Videos\Padman (2018) HDRip 720p Hindi H.264 ACC - LatestHDMovies.mkv
Format                      : Matroska
Format version              : Version 4 / Version 2
File size                   : 1.35 GiB
Duration                    : 2 h 7 min
Overall bit rate            : 1 508 kb/s
Movie name                  : LatestHDMovies | TeamSHAHID
Encoded date                : UTC 2018-05-13 01:21:09
Writing application         : mkvmerge v21.0.0 ('Tardigrades Will Inherit The Earth') 32-bit
Writing library             : libebml v1.3.5 + libmatroska v1.4.8
Cover                       : Yes
Attachments                 : Cover.jpg

Video
ID                          : 1
Format                      : AVC
Format/Info                 : Advanced Video Codec
Format profile              : [email protected]
Format settings             : 3 Ref Frames
Format settings, CABAC      : No
Format settings, ReFrames   : 3 frames
Codec ID                    : V_MPEG4/ISO/AVC
Duration                    : 2 h 7 min
Bit rate                    : 1 400 kb/s
Width                       : 1 288 pixels
Height                      : 544 pixels
Display aspect ratio        : 2.35:1
Frame rate mode             : Constant
Frame rate                  : 25.000 FPS
Color space                 : YUV
Chroma subsampling          : 4:2:0
Bit depth                   : 8 bits
Scan type                   : Progressive
Bits/(Pixel*Frame)          : 0.080
Stream size                 : 1.26 GiB (93%)
Title                       : LatestHDMovies - TeamSHAHID
Writing library             : x264 core 135
Encoding settings           : cabac=0 / ref=3 / deblock=1:0:0 / analyse=0x1:0x111 / me=hex / subme=7 / psy=1 / psy_rd=1.00:0.00 / mixed_ref=1 / me_range=16 / chroma_me=1 / trellis=1 / 8x8dct=0 / cqm=0 / deadzone=21,11 / fast_pskip=1 / chroma_qp_offset=-2 / threads=2 / lookahead_threads=1 / sliced_threads=0 / nr=0 / decimate=1 / interlaced=0 / bluray_compat=0 / constrained_intra=0 / bframes=0 / weightp=0 / keyint=50 / keyint_min=5 / scenecut=40 / intra_refresh=0 / rc_lookahead=40 / rc=abr / mbtree=1 / bitrate=1400 / ratetol=1.0 / qcomp=0.60 / qpmin=0 / qpmax=51 / qpstep=4 / ip_ratio=1.40 / aq=1:1.00
Language                    : Hindi
Default                     : Yes
Forced                      : No

Audio
ID                          : 2
Format                      : AAC
Format/Info                 : Advanced Audio Codec
Format profile              : LC
Codec ID                    : A_AAC-2
Duration                    : 2 h 7 min
Bit rate                    : 96.0 kb/s
Channel(s)                  : 2 channels
Channel positions           : Front: L R
Sampling rate               : 44.1 kHz
Frame rate                  : 43.066 FPS (1024 SPF)
Compression mode            : Lossy
Delay relative to video     : -36 ms
Stream size                 : 87.7 MiB (6%)
Title                       : LatestHDMovies - TeamSHAHID
Language                    : Hindi
Default                     : Yes
Forced                      : No



















Sharing Widget


No Comments For This Torrent . Be The First to Comment

You must Login to Comment . Click Here to Login

Menu 1

Some content in menu 1.

Padman (2018) HDRip 720p Hindi H 264 AAC - LatestHDMovies (Size: 1.3 GB)
  Padman (2018) HDRip 720p Hindi H 264 AAC - LatestHDMovies 1.3 GB
tracker name
udp://tracker.leechers-paradise.org:6969/announce
udp://zer0day.ch:1337/announce
udp://open.demonii.com:1337/announce
udp://tracker.coppersurfer.tk:6969/announce
udp://exodus.desync.com:6969/announce
µTorrent compatible trackers list

Relative Torrents

Torrent Name Size Age SEED LEECH
Life Itself 2018 BDRip X264-AMIABLE[EtMoies]
Posted by    EtHD   in   Movies
568.7 MB 18 seconds 605 164
Life Itself 2018 BRRip AC3 X264-CMRG[TGx
Posted by    mazemaze16   in   Movies
1.7 GB 18 seconds 875 655
Life Itself 2018 BRRip AC3 X264-CMRG[EtMvies]
Posted by    EtHD   in   Movies
1.7 GB 18 seconds 984 826
A Bad Moms Christmas (2017) x 800 (1080p 5 1 - 2 0 x264 Phun Psyz
Posted by    PhunPsyz   in   Movies
2.0 GB 3 minutes 308 470
Life Itself 2018 BDRip X264-AMIABLE[TGx]
Posted by    mazemaze16   in   Movies
558.7 MB 6 minutes 171 260