Paltan 2018 Hindi 1080p WEBRip x264 [MW] Torrent Free Download

Seeders : 67   &   Leechers : 833      11-11-2018 (1 week)
Paltan 2018 Hindi 1080p WEBRip x264 [MW] Torrent Download
Added: ago by moviezworldz ***** in Movies   2.2 GB   Hits : 18
Info Hash: BC473C5D7CC0705182E25AED4AD80E070D54900D Download
Paltan 2018 Hindi 1080p WEBRip x264 [MW] Torrent Download

Anonymous and Direct Download movies , software , shows...

Fast Safe Anonymous
movies, software, shows...
Paltan
Comedy   .   N/A   4.0/10
Starring : Swati Chitnis  Anjan Srivastav  
Director : N/A  
Writer: N/A  
Tags: Paltan  2018  Hindi  1080p  WEBRip  x264  

Released:
N/A
Paltan was a 1997 TV series which played on DD at 2100hrs. It was the classical story of two elderly couple getting married with each other, and how their children were unable to adjust with the newer set of siblings that came with their other parent...

Torrent Description







General
Format : Matroska
Format version : Version 4 / Version 2
File size : 2.16 GiB
Duration : 2 h 27 min
Overall bit rate : 2 099 kb/s

Video
ID : 1
Format : AVC
Format/Info : Advanced Video Codec
Format profile : [email protected]
Format settings : CABAC / 4 Ref Frames
Format settings, CABAC : Yes
Format settings, RefFrames : 4 frames
Codec ID : V_MPEG4/ISO/AVC
Duration : 2 h 27 min
Bit rate : 2 000 kb/s
Width : 1 920 pixels
Height : 818 pixels
Display aspect ratio : 2.35:1
Frame rate mode : Constant
Frame rate : 25.000 FPS
Color space : YUV
Chroma subsampling : 4:2:0
Bit depth : 8 bits
Scan type : Progressive
Bits/(Pixel*Frame) : 0.051
Stream size : 2.03 GiB (94%)
Writing library : x264 core 155 r2901 7d0ff22
Default : Yes
Forced : No

Audio
ID : 2
Format : AAC
Format/Info : Advanced Audio Codec
Format profile : LC
Codec ID : A_AAC-2
Duration : 2 h 27 min
Bit rate : 127 kb/s
Channel(s) : 2 channels
Channel positions : Front: L R
Sampling rate : 48.0 kHz
Frame rate : 46.875 FPS (1024 SPF)
Compression mode : Lossy
Delay relative to video : -21 ms
Stream size : 134 MiB (6%)
Language : Hindi
Default : Yes
Forced : No


Click To View Image










Sharing Widget


No Comments For This Torrent . Be The First to Comment

You must Login to Comment . Click Here to Login

Menu 1

Some content in menu 1.

Paltan 2018 Hindi 1080p WEBRip x264 [MW] (Size: 2.2 GB)
  Paltan 2018 Hindi 1080p WEBRip x264 [MW] 2.2 GB
tracker name
udp://tracker.leechers-paradise.org:6969/announce
udp://zer0day.ch:1337/announce
udp://open.demonii.com:1337/announce
udp://tracker.coppersurfer.tk:6969/announce
udp://exodus.desync.com:6969/announce
µTorrent compatible trackers list

Relative Torrents

Torrent Name Size Age SEED LEECH
Marvels Avengers-Black Panthers Quest S0E10 480p x264-mSD [eztv]
Posted by    EZTVag   in   TV
62.6 MB 1 minute 150 645
Windows 7 AIO SP1 x86 aggiornato a Novemre 2018 ITA
Posted by    DDAnonymous   in   Applications
2.5 GB 1 minute 409 540
Henry Danger S05E06 720p WEB x264-TBS [etv]
Posted by    EZTVag   in   TV
901.3 MB 6 minutes 602 445
Henry Danger S05E06 720p WEB x264-TBS
Posted by    Trige   in   TV
901.3 MB 6 minutes 440 393
Marvels Avengers-Black Panthers Quest S0E10 720p WEB x264-TBS [eztv]
Posted by    EZTVag   in   TV
514.6 MB 6 minutes 148 672