Paltan 2018 Hindi 720p WEBRip x264 [MW] Torrent Free Download

Seeders : 717   &   Leechers : 985      11-11-2018 (1 week)
Paltan 2018 Hindi 720p WEBRip x264 [MW] Torrent Download
Added: ago by moviezworldz ***** in Movies   1.1 GB   Hits : 22
Info Hash: 066CB79EA44CE00CF469FFED944D45A016DFCBF9 Download
Paltan 2018 Hindi 720p WEBRip x264 [MW] Torrent Download

Anonymous and Direct Download movies , software , shows...

Fast Safe Anonymous
movies, software, shows...
Paltan
Comedy   .   N/A   4.0/10
Starring : Swati Chitnis  Anjan Srivastav  
Director : N/A  
Writer: N/A  
Tags: Paltan  2018 Hindi  720p  WEBRip  x264  [MW]  

Released:
N/A
Paltan was a 1997 TV series which played on DD at 2100hrs. It was the classical story of two elderly couple getting married with each other, and how their children were unable to adjust with the newer set of siblings that came with their other parent...

Torrent Description







General
Format : Matroska
Format version : Version 4 / Version 2
File size : 1.14 GiB
Duration : 2 h 27 min
Overall bit rate : 1 108 kb/s

Video
ID : 1
Format : AVC
Format/Info : Advanced Video Codec
Format profile : [email protected]
Format settings : CABAC / 4 Ref Frames
Format settings, CABAC : Yes
Format settings, RefFrames : 4 frames
Codec ID : V_MPEG4/ISO/AVC
Duration : 2 h 27 min
Bit rate : 1 000 kb/s
Width : 1 280 pixels
Height : 544 pixels
Display aspect ratio : 2.35:1
Frame rate mode : Constant
Frame rate : 25.000 FPS
Color space : YUV
Chroma subsampling : 4:2:0
Bit depth : 8 bits
Scan type : Progressive
Bits/(Pixel*Frame) : 0.057
Stream size : 1.01 GiB (88%)
Writing library : x264 core 155 r2901 7d0ff22
Default : Yes
Forced : No

Audio
ID : 2
Format : AAC
Format/Info : Advanced Audio Codec
Format profile : LC
Codec ID : A_AAC-2
Duration : 2 h 27 min
Bit rate : 127 kb/s
Channel(s) : 2 channels
Channel positions : Front: L R
Sampling rate : 48.0 kHz
Frame rate : 46.875 FPS (1024 SPF)
Compression mode : Lossy
Stream size : 134 MiB (11%)
Language : Hindi
Default : Yes
Forced : No


Click To View Image










Sharing Widget


No Comments For This Torrent . Be The First to Comment

You must Login to Comment . Click Here to Login

Menu 1

Some content in menu 1.

Paltan 2018 Hindi 720p WEBRip x264 [MW] (Size: 1.1 GB)
  Paltan 2018 Hindi 720p WEBRip x264 [MW] 1.1 GB
tracker name
udp://tracker.leechers-paradise.org:6969/announce
udp://zer0day.ch:1337/announce
udp://open.demonii.com:1337/announce
udp://tracker.coppersurfer.tk:6969/announce
udp://exodus.desync.com:6969/announce
µTorrent compatible trackers list

Relative Torrents

Torrent Name Size Age SEED LEECH
Christopher Kimballs Milk Street Televison S02E03 Middle East Classics 720p HDT
Posted by    EZTVag   in   TV
498.5 MB 3 minutes 416 232
Mickey Mouse Clubhouse S02E22 720p WEB x64-CRiMSON [eztv]
Posted by    EZTVag   in   TV
330.8 MB 8 minutes 951 280
Mickey Mouse Clubhouse S02E23 720p WEB x64-CRiMSON [eztv]
Posted by    EZTVag   in   TV
540.6 MB 8 minutes 343 822
Mickey Mouse Clubhouse S02E25 720p WEB x64-CRiMSON [eztv]
Posted by    EZTVag   in   TV
330.7 MB 8 minutes 962 943
Mickey Mouse Clubhouse S02E26 720p WEB x64-CRiMSON [eztv]
Posted by    EZTVag   in   TV
346.0 MB 8 minutes 201 869