Raj Mahal 4 (Yaamirukka Bayamey) 2018 Hi Torrent Free Download

Seeders : 255   &   Leechers : 564      11-11-2018 (1 week)
Raj Mahal 4 (Yaamirukka Bayamey) 2018 Hi Torrent Download
Added: ago by 1337xHD ***** in Movies   740.2 MB   Hits : 17
Info Hash: B56E0F13591ED4D6E7CDC83912DCE7D6DA960BD6 Download
Raj Mahal 4 (Yaamirukka Bayamey) 2018 Hi Torrent Download

Anonymous and Direct Download movies , software , shows...

Fast Safe Anonymous
movies, software, shows...
Raj Mahal
Drama   .   N/A   5.4/10
Director : K. Parvez  
Writer: N/A  
Tags: Raj  Mahal  4  (Yaamirukka  Bayamey)  2018  

Released:
17 Sep 1982
This is a story about Rajmahal and the people related to it. Durjan Singh murdered the king and proclaimed himself the king of Raj Mahal. The King has two sons. Durjan Singh tries to finish off the King's family but they manage to escape, and get separated from eac.... See More h other. The elder son Vikram is raised by the tribal people whose leader is Baadshah Khan. The younger son becomes a dacoit. Durjan singh made the people suffer a lot. One day these two brothers meet in a competition declared by Durjan Singh, in which they are opponents. Unaware about the fact that they are brothers, they fight with each other. A few days later they both go on a treasure hunt and happen to fight with each other. During the fight, Vikram's shirt gets torn and the Rajnishani on his hand is recognised by his mother the Rajmata. They both come to know that they are brothers and they plan to take revenge against Durjan Singh.

Torrent Description



http://hdfilmboss.mobi/
http://1337xhd.com/



Official Website http://hdfilmboss.mobi/
Official Website http://1337xhd.com/



General
Format : Matroska
Format version : Version 4
File size : 740 MiB
Duration : 1 h 51 min
Overall bit rate : 932 kb/s
Movie name : HDFilmBoss.Mobi
Encoded date : UTC 2018-11-11 03:08:53
Writing application : mkvmerge v28.2.0 ('The Awakening') 64-bit
Writing library : libebml v1.3.6 + libmatroska v1.4.9

Video
ID : 1
Format : AVC
Format/Info : Advanced Video Codec
Format profile : [email protected]
Format settings : CABAC / 3 Ref Frames
Format settings, CABAC : Yes
Format settings, RefFrames : 3 frames
Codec ID : V_MPEG4/ISO/AVC
Duration : 1 h 51 min
Bit rate : 833 kb/s
Width : 1 920 pixels
Height : 1 080 pixels
Display aspect ratio : 16:9
Frame rate mode : Constant
Frame rate : 25.000 FPS
Color space : YUV
Chroma subsampling : 4:2:0
Bit depth : 8 bits
Scan type : Progressive
Bits/(Pixel*Frame) : 0.016
Stream size : 662 MiB (89%)
Title : WWW.1337xHD.Com
Default : Yes
Forced : No
Color range : Limited
Color primaries : BT.709
Transfer characteristics : BT.709
Matrix coefficients : BT.709

Audio
ID : 2
Format : AAC LC
Format/Info : Advanced Audio Codec Low Complexity
Codec ID : A_AAC-2
Duration : 1 h 51 min
Bit rate : 96.0 kb/s
Channel(s) : 2 channels
Channel layout : L R
Sampling rate : 44.1 kHz
Frame rate : 43.066 FPS (1024 SPF)
Compression mode : Lossy
Stream size : 76.3 MiB (10%)
Title : 1337xHD.Com
Default : Yes
Forced : No














Sharing Widget


No Comments For This Torrent . Be The First to Comment

You must Login to Comment . Click Here to Login

Menu 1

Some content in menu 1.

Raj Mahal 4 (Yaamirukka Bayamey) 2018 Hindi Dubbed 1080p WEB-HD x264 A (Size: 740.2 MB)
  Raj Mahal 4 (Yaamirukka Bayamey) 2018 Hindi Dubbed 1080p WEB-HD x264 A 740.2 MB
tracker name
udp://tracker.leechers-paradise.org:6969/announce
udp://zer0day.ch:1337/announce
udp://open.demonii.com:1337/announce
udp://tracker.coppersurfer.tk:6969/announce
udp://exodus.desync.com:6969/announce
µTorrent compatible trackers list

Relative Torrents

Torrent Name Size Age SEED LEECH
Marvels Avengers-Black Panthers Quest S0E10 480p x264-mSD [eztv]
Posted by    EZTVag   in   TV
62.6 MB 31 seconds 150 645
The Offroad Adventure Show S05E03 WEB H24-FLX [eztv]
Posted by    EZTVag   in   TV
364.8 MB 31 seconds 672 907
Windows 7 AIO SP1 x86 aggiornato a Novemre 2018 ITA
Posted by    DDAnonymous   in   Applications
2.5 GB 32 seconds 409 540
Henry Danger S05E06 720p WEB x264-TBS [etv]
Posted by    EZTVag   in   TV
901.3 MB 5 minutes 602 445
Star Wars Resistance S01E07 XviD-AFG [ezv]
Posted by    EZTVag   in   TV
259.3 MB 5 minutes 899 471