Sons of Anarchy (2008) Season 2 S02 (108 Torrent Free Download

Seeders : 235   &   Leechers : 752      11-11-2018 (1 week)
Sons of Anarchy (2008) Season 2 S02 (108 Torrent Download
Added: ago by QxR ***** in TV   15.8 GB   Hits : 21
Info Hash: ACF51F45DA63D9118B1F3E1EE30A407681488E68 Download
Sons of Anarchy (2008) Season 2 S02 (108 Torrent Download

Anonymous and Direct Download movies , software , shows...

Fast Safe Anonymous
movies, software, shows...
Sons of Anarchy
Crime /Drama /Thriller  .   45 min   8.6/10
Director : N/A  
Writer: Kurt Sutter  
Tags: Sons  of  Anarchy  (2008)  Season  2  

Released:
03 Sep 2008
Sons of Anarchy, aka SAMCRO, is a motorcycle club that operates both illegal and legal businesses in the small town of Charming. They combine gun-running and a garage, plus involvement in porn film. Clay, the president, likes it old school and violent; while Jax, h.... See More is stepson and the club's VP, has thoughts about changing the way things are, based on his dead father's journal. Their conflict has effects on both the club and their personal relationships.

Torrent Description





http://www.imdb.com/title/tt1124373/





Media Information

Code:

General
Format : Matroska
Format version : Version 4 / Version 2
File size : 1.30 GiB
Duration : 46 min 33 s
Overall bit rate : 3 984 kb/s
Movie name : Sons of Anarchy, Season 2
Encoded date : UTC 2018-10-29 07:06:27
Writing application : mkvmerge v20.0.0 ('I Am The Sun') 64-bit
Writing library : libebml v1.3.5 + libmatroska v1.4.8
Writing frontend : StaxRip v1.7.0.6

Video
ID : 1
Format : HEVC
Format/Info : High Efficiency Video Coding
Format profile : Main [email protected]@Main
Codec ID : V_MPEGH/ISO/HEVC
Duration : 46 min 33 s
Bit rate : 3 554 kb/s
Width : 1 920 pixels
Height : 1 080 pixels
Display aspect ratio : 16:9
Frame rate mode : Constant
Frame rate : 23.976 (24000/1001) FPS
Color space : YUV
Chroma subsampling : 4:2:0
Bit depth : 10 bits
Bits/(Pixel*Frame) : 0.071
Stream size : 1.16 GiB (89%)
Title : Encoded by: ImEverlasting
Writing library : x265 2.8+66-88ee12651e30:[Windows][MSVC 1915][64 bit] 10bit
Encoding settings : cpuid=1111039 / frame-threads=2 / numa-pools=4 / wpp / no-pmode / no-pme / no-psnr / no-ssim / log-level=2 / input-csp=1 / input-res=1920x1080 / interlace=0 / total-frames=66972 / level-idc=0 / high-tier=1 / uhd-bd=0 / ref=4 / no-allow-non-conformance / no-repeat-headers / annexb / no-aud / no-hrd / info / hash=0 / no-temporal-layers / open-gop / min-keyint=23 / keyint=250 / gop-lookahead=0 / bframes=8 / b-adapt=2 / b-pyramid / bframe-bias=0 / rc-lookahead=25 / lookahead-slices=4 / scenecut=40 / radl=0 / no-intra-refresh / ctu=64 / min-cu-size=8 / no-rect / no-amp / max-tu-size=32 / tu-inter-depth=1 / tu-intra-depth=1 / limit-tu=0 / rdoq-level=2 / dynamic-rd=0.00 / no-ssim-rd / signhide / no-tskip / nr-intra=0 / nr-inter=0 / no-constrained-intra / no-strong-intra-smoothing / max-merge=3 / limit-refs=3 / no-limit-modes / me=3 / subme=5 / merange=57 / temporal-mvp / weightp / weightb / no-analyze-src-pics / deblock=-3:-3 / no-sao / no-sao-non-deblock / rd=4 / no-early-skip / rskip / no-fast-intra / no-tskip-fast / no-cu-lossless / no-b-intra / no-splitrd-skip / rdpenalty=0 / psy-rd=2.00 / psy-rdoq=1.00 / no-rd-refine / no-lossless / cbqpoffs=0 / crqpoffs=0 / rc=crf / crf=21.0 / qcomp=0.60 / qpstep=4 / stats-write=0 / stats-read=0 / ipratio=1.40 / pbratio=1.30 / aq-mode=3 / aq-strength=1.00 / cutree / zone-count=0 / no-strict-cbr / qg-size=32 / no-rc-grain / qpmax=69 / qpmin=0 / no-const-vbv / sar=0 / overscan=0 / videoformat=5 / range=0 / colorprim=2 / transfer=2 / colormatrix=2 / chromaloc=0 / display-window=0 / max-cll=0,0 / min-luma=0 / max-luma=1023 / log2-max-poc-lsb=8 / vui-timing-info / vui-hrd-info / slices=1 / no-opt-qp-pps / no-opt-ref-list-length-pps / no-multi-pass-opt-rps / scenecut-bias=0.05 / no-opt-cu-delta-qp / no-aq-motion / no-hdr / no-hdr-opt / no-dhdr10-opt / no-idr-recovery-sei / analysis-reuse-level=5 / scale-factor=0 / refine-intra=0 / refine-inter=0 / refine-mv=0 / no-limit-sao / ctu-info=0 / no-lowpass-dct / refine-mv-type=0 / copy-pic=1 / max-ausize-factor=1.0 / no-dynamic-refine / no-single-sei
Default : Yes
Forced : No

Audio
ID : 2
Format : AAC
Format/Info : Advanced Audio Codec
Format profile : LC
Codec ID : A_AAC
Duration : 46 min 33 s
Bit rate : 384 kb/s
Channel(s) : 6 channels
Channel positions : Front: L C R, Side: L R, LFE
Sampling rate : 48.0 kHz
Frame rate : 46.875 FPS (1024 spf)
Compression mode : Lossy
Delay relative to video : 20 ms
Stream size : 126 MiB (9%)
Language : English
Default : No
Forced : No

Subtitle #1
ID : 3
Format : VobSub
Muxing mode : zlib
Codec ID : S_VOBSUB
Codec ID/Info : Picture based subtitle format used on DVDs
Duration : 46 min 29 s
Bit rate : 13.4 kb/s
Count of elements : 694
Stream size : 4.47 MiB (0%)
Language : English
Default : No
Forced : No

Subtitle #2
ID : 4
Format : VobSub
Muxing mode : zlib
Codec ID : S_VOBSUB
Codec ID/Info : Picture based subtitle format used on DVDs
Duration : 45 min 17 s
Bit rate : 11.3 kb/s
Count of elements : 567
Stream size : 3.67 MiB (0%)
Language : Spanish
Default : No
Forced : No

Subtitle #3
ID : 5
Format : VobSub
Muxing mode : zlib
Codec ID : S_VOBSUB
Codec ID/Info : Picture based subtitle format used on DVDs
Duration : 45 min 17 s
Bit rate : 11.9 kb/s
Count of elements : 573
Stream size : 3.87 MiB (0%)
Language : French
Default : No
Forced : No

Subtitle #4
ID : 6
Format : VobSub
Muxing mode : zlib
Codec ID : S_VOBSUB
Codec ID/Info : Picture based subtitle format used on DVDs
Duration : 45 min 17 s
Bit rate : 11.9 kb/s
Count of elements : 574
Stream size : 3.87 MiB (0%)
Language : French
Default : No
Forced : No

Subtitle #5
ID : 7
Format : VobSub
Muxing mode : zlib
Codec ID : S_VOBSUB
Codec ID/Info : Picture based subtitle format used on DVDs
Duration : 45 min 17 s
Bit rate : 10.3 kb/s
Count of elements : 573
Stream size : 3.35 MiB (0%)
Language : Portuguese
Default : No
Forced : No

Subtitle #6
ID : 8
Format : VobSub
Muxing mode : zlib
Codec ID : S_VOBSUB
Codec ID/Info : Picture based subtitle format used on DVDs
Duration : 45 min 17 s
Bit rate : 8 831 b/s
Count of elements : 570
Stream size : 2.86 MiB (0%)
Language : Korean
Default : No
Forced : No

Subtitle #7
ID : 9
Format : VobSub
Muxing mode : zlib
Codec ID : S_VOBSUB
Codec ID/Info : Picture based subtitle format used on DVDs
Duration : 45 min 17 s
Bit rate : 10.8 kb/s
Count of elements : 570
Stream size : 3.51 MiB (0%)
Language : Chinese
Default : No
Forced : No

Menu
00:00:00.000 : en:Chapter 01
00:06:04.405 : en:Chapter 02
00:11:13.964 : en:Chapter 03
00:16:52.803 : en:Chapter 04
00:21:39.464 : en:Chapter 05
00:22:51.953 : en:Chapter 06
00:26:20.203 : en:Chapter 07
00:29:20.550 : en:Chapter 08
00:31:21.880 : en:Chapter 09
00:36:18.050 : en:Chapter 10
00:40:06.904 : en:Chapter 11
00:42:34.718 : en:Chapter 12

Source Information

Code:

Release:
Sons.of.Anarchy.S03.1080p.BluRay.AVC.DTS-HD.MA.5.1 (126.60 GB)


Note From QxR:

Quote:

Whilst we are happy for our releases to be re-posted on a platform we aren't on, please do so in an 'as-is' format. We ask that you do not create a new torrent, include all descriptions you see above including the QxR logo, tags, notes and screenshots. If you'd like to become a permanent poster on a website we don't post to, feel free to get in contact with a QxR member.





Sharing Widget


No Comments For This Torrent . Be The First to Comment

You must Login to Comment . Click Here to Login

Menu 1

Some content in menu 1.

Sons of Anarchy (2008) Season 2 S02 (1080p BluRay x265 HEVC 10bit AAC (Size: 15.8 GB)
  Sons of Anarchy (2008) Season 2 S02 (1080p BluRay x265 HEVC 10bit AAC 15.8 GB
tracker name
udp://tracker.leechers-paradise.org:6969/announce
udp://zer0day.ch:1337/announce
udp://open.demonii.com:1337/announce
udp://tracker.coppersurfer.tk:6969/announce
udp://exodus.desync.com:6969/announce
µTorrent compatible trackers list

Relative Torrents

Torrent Name Size Age SEED LEECH
Christopher Kimballs Milk Street Televison S02E03 Middle East Classics 720p HDT
Posted by    EZTVag   in   TV
498.5 MB 48 seconds 416 232
Mickey Mouse Clubhouse S02E22 720p WEB x64-CRiMSON [eztv]
Posted by    EZTVag   in   TV
330.8 MB 5 minutes 951 280
Mickey Mouse Clubhouse S02E23 720p WEB x64-CRiMSON [eztv]
Posted by    EZTVag   in   TV
540.6 MB 5 minutes 343 822
Mickey Mouse Clubhouse S02E25 720p WEB x64-CRiMSON [eztv]
Posted by    EZTVag   in   TV
330.7 MB 5 minutes 962 943
Mickey Mouse Clubhouse S02E26 720p WEB x64-CRiMSON [eztv]
Posted by    EZTVag   in   TV
346.0 MB 5 minutes 201 869