The Hitmans Bodyguard 2017 x264 720p Esu Torrent Free Download

Seeders : 434   &   Leechers : 937      11-11-2018 (1 week)
The Hitmans Bodyguard 2017 x264 720p Esu Torrent Download
Added: ago by PENDUDESI ***** in Movies   671.9 MB   Hits : 23
Info Hash: 8F6BC31FA13E8ACA6F9D8C9F75095D433200A3AE Download
The Hitmans Bodyguard 2017 x264 720p Esu Torrent Download

Anonymous and Direct Download movies , software , shows...

Fast Safe Anonymous
movies, software, shows...

Torrent Description



http://www.gopisahi.pw/

Format : Matroska
Format version : Version 4 / Version 2
File size : 672 MiB
Duration : 1 h 58 min
Overall bit rate : 794 kb/s
Movie name : The Hitmans Bodyguard 2017 GOPISAHI

Video
Format : AVC
Format/Info : Advanced Video Codec
Codec ID : V_MPEG4/ISO/AVC
Duration : 1 h 58 min
Bit rate : 599 kb/s
Width : 1 280 pixels
Height : 534 pixels
Display aspect ratio : 2.40:1
Original display aspect ratio : 2.40:1
Frame rate mode : Constant
Frame rate : 23.976 (24000/1001) FPS
Color space : YUV
Chroma subsampling : 4:2:0
Bit depth : 8 bits
Scan type : Progressive
Bits/(Pixel*Frame) : 0.037
Stream size : 507 MiB (75%)
Title : GOPISAHI
Writing library : x264 core 155 r2901 7d0ff22

Audio #1
Format : AAC
Duration : 1 h 58 min
Bit rate : 96.0 kb/s
Channel(s) : 2 channels
Channel positions : Front: L R
Sampling rate : 48.0 kHz
Frame rate : 46.875 FPS (1024 SPF)
Compression mode : Lossy
Delay relative to video : 103 ms
Stream size : 81.3 MiB (12%)
Title : GOPISAHI
Language : Hindi

Audio #2
Format : AAC
Format/Info : Advanced Audio Codec
Duration : 1 h 58 min
Bit rate : 96.0 kb/s
Channel(s) : 2 channels
Channel positions : Front: L R
Sampling rate : 48.0 kHz
Frame rate : 46.875 FPS (1024 SPF)
Compression mode : Lossy
Stream size : 81.5 MiB (12%)
Title : GOPISAHI
Language : English

Text
Language : English





Sharing Widget


No Comments For This Torrent . Be The First to Comment

You must Login to Comment . Click Here to Login

Menu 1

Some content in menu 1.

The Hitmans Bodyguard 2017 x264 720p Esub BluRay Dual Audio English Hi (Size: 671.9 MB)
  The Hitmans Bodyguard 2017 x264 720p Esub BluRay Dual Audio English Hi 671.9 MB
tracker name
udp://tracker.leechers-paradise.org:6969/announce
udp://zer0day.ch:1337/announce
udp://open.demonii.com:1337/announce
udp://tracker.coppersurfer.tk:6969/announce
udp://exodus.desync.com:6969/announce
µTorrent compatible trackers list

Relative Torrents

Torrent Name Size Age SEED LEECH
Hoffa (1992) [BluRay] [720p] [YTS] [YIFY
Posted by    YTSAGx   in   Movies
1.2 GB 7 minutes 725 998
The Clinton Affair S01E03 XviD-AFG[TGx]
Posted by    mazemaze16   in   TV
509.3 MB 9 minutes 703 704
Beyond The Sky 2018 BluRay 1080p x264 DT-HD MA5 1-DTOne
Posted by    SaM   in   Movies
7.8 GB 10 minutes 171 639
The Ballad Of Buster Scruggs 2018 1080p F WebDL AVC DD 5 1-DTOne
Posted by    SaM   in   Movies
5.6 GB 13 minutes 102 518
Boarding School 2018 1080 Bluray x264 DT-HDMA 5 1-DTOne
Posted by    SaM   in   Movies
10.5 GB 16 minutes 491 560