The Meg (2018) 1080p BluRay x264 Dual Au Torrent Free Download

Seeders : 565   &   Leechers : 507      11-11-2018 (1 week)
The Meg (2018) 1080p BluRay x264 Dual Au Torrent Download
Added: ago by TheFighter ***** in Movies   4.7 GB   Hits : 24
Info Hash: 13C7091BF6341D867A2C32D15A8215B85ED855D9 Download
The Meg (2018) 1080p BluRay x264 Dual Au Torrent Download

Anonymous and Direct Download movies , software , shows...

Fast Safe Anonymous
movies, software, shows...
The Meg
Action /Horror /Sci-Fi /Thriller  .   113 min   5.9/10
Director : Jon Turteltaub  
Tags: The  Meg  (2018)  1080p  BluRay  x264  

Released:
10 Aug 2018
Five years ago, expert sea diver and Naval Captain Jonas Taylor encountered an unknown danger in the unexplored recesses of the Mariana Trench that forced him to abort his mission and abandon half his crew. Though the tragic incident earned him a dishonorable disch.... See More arge, what ultimately cost him his career, his marriage and any semblance of honor was his unsupported and incredulous claims of what caused it - an attack on his vessel by a mammoth, 70-foot sea creature, believed to be extinct for more than a million years. But when a submersible lies sunk and disabled at the bottom of the ocean - carrying his ex-wife among the team onboard - he is the one who gets the call. Whether a shot at redemption or a suicide mission, Jonas must confront his fears and risk his own life and the lives of everyone trapped below on a single question: Could the Carcharodon Megalodon - the largest marine predator that ever existed - still be alive ... and on the hunt?

Torrent Description











The Meg (2018) 1080p BluRay x264 Dual Audio [Hindi DD5.1 - English DD5.1] - MSUBS ~ Ranvijay

Thanks To Hammer For Hindi Audio

Buy RDP Online




Format : Matroska
Format version : Version 4 / Version 2
File size : 4.67 GiB
Duration : 1 h 53 min
Overall bit rate : 5 908 kb/s
Movie name : The Meg (2018) 1080p BluRay x264 Dual Audio [Hindi DD5.1 - English DD5.1] - MSUBS ~ Ranvijay

Video
ID : 1
Format : AVC
Format/Info : Advanced Video Codec
Duration : 1 h 53 min
Bit rate : 5 000 kb/s
Width : 1 920 pixels
Height : 800 pixels
Display aspect ratio : 2.40:1
Frame rate mode : Constant
Frame rate : 23.976 (24000/1001) FPS
Color space : YUV
Chroma subsampling : 4:2:0
Bit depth : 8 bits
Scan type : Progressive
Bits/(Pixel*Frame) : 0.136
Stream size : 3.95 GiB (85%)
Title : ~Ranvijay~

Audio #1
ID : 2
Format : AC-3
Format/Info : Audio Coding 3
Codec ID : A_AC3
Duration : 1 h 53 min
Bit rate mode : Constant
Bit rate : 448 kb/s
Channel(s) : 6 channels
Channel positions : Front: L C R, Side: L R, LFE
Sampling rate : 48.0 kHz
Frame rate : 31.250 FPS (1536 SPF)
Bit depth : 16 bits
Compression mode : Lossy
Stream size : 363 MiB (8%)
Title : ~Ranvijay~
Language : Hindi
Service kind : Complete Main
Default : Yes
Forced : Yes

Audio #2
ID : 3
Format : AC-3
Format/Info : Audio Coding 3
Codec ID : A_AC3
Duration : 1 h 53 min
Bit rate mode : Constant
Bit rate : 448 kb/s
Channel(s) : 6 channels
Channel positions : Front: L C R, Side: L R, LFE
Sampling rate : 48.0 kHz
Frame rate : 31.250 FPS (1536 SPF)
Bit depth : 16 bits
Compression mode : Lossy
Stream size : 363 MiB (8%)
Title : ~Ranvijay~
Language : English
Service kind : Complete Main
Default : No
Forced : No

Text #1
ID : 4
Format : PGS
Muxing mode : zlib
Codec ID : S_HDMV/PGS
Codec ID/Info : Picture based subtitle format used on BDs/HD-DVDs
Duration : 1 h 52 min
Bit rate : 32.0 kb/s
Count of elements : 2960
Stream size : 25.6 MiB (1%)
Title : ~Ranvijay~
Language : English
Default : Yes
Forced : Yes

Text #2
ID : 5
Format : PGS
Muxing mode : zlib
Codec ID : S_HDMV/PGS
Codec ID/Info : Picture based subtitle format used on BDs/HD-DVDs
Duration : 1 h 52 min
Bit rate : 547 b/s
Count of elements : 90
Stream size : 450 KiB (0%)
Title : ~Ranvijay~
Language : Hindi
Default : No
Forced : No













Don't walk as you are king, walk as you don't care who the king is....!!





Sharing Widget


No Comments For This Torrent . Be The First to Comment

You must Login to Comment . Click Here to Login

Menu 1

Some content in menu 1.

The Meg (2018) 1080p BluRay x264 Dual Audio [Hindi DD5 1 - English DD5 (Size: 4.7 GB)
  The Meg (2018) 1080p BluRay x264 Dual Audio [Hindi DD5 1 - English DD5 4.7 GB
tracker name
udp://tracker.leechers-paradise.org:6969/announce
udp://zer0day.ch:1337/announce
udp://open.demonii.com:1337/announce
udp://tracker.coppersurfer.tk:6969/announce
udp://exodus.desync.com:6969/announce
µTorrent compatible trackers list

Relative Torrents

Torrent Name Size Age SEED LEECH
Kentucky Ayahuasca S01E01 Taylor Jose an Summer WEB x264-CAFFEiNE [eztv]
Posted by    EZTVag   in   TV
367.6 MB 2 minutes 315 834
Hoffa (1992) [BluRay] [720p] [YTS] [YIFY
Posted by    YTSAGx   in   Movies
1.2 GB 10 minutes 725 998
The Clinton Affair S01E03 XviD-AFG[TGx]
Posted by    mazemaze16   in   TV
509.3 MB 12 minutes 703 704
CleanMyMac X 4 1 0 Patched {Mac OS X} [CacksNow]
Posted by    cracksnow   in   Applications
76.2 MB 12 minutes 367 522
Beyond The Sky 2018 BluRay 1080p x264 DT-HD MA5 1-DTOne
Posted by    SaM   in   Movies
7.8 GB 13 minutes 171 639