The Meg (2018) 1080p BluRay x265 10Bit H Torrent Free Download

Seeders : 658   &   Leechers : 417      11-11-2018 (1 week)
The Meg (2018) 1080p BluRay x265 10Bit H Torrent Download
Added: ago by DesiZombies ***** in Movies   9.4 GB   Hits : 16
Info Hash: 878A4CDB9CA6A6EE58F69D755DC5DBABB4211981 Download
The Meg (2018) 1080p BluRay x265 10Bit H Torrent Download

Anonymous and Direct Download movies , software , shows...

Fast Safe Anonymous
movies, software, shows...
The Meg
Action /Horror /Sci-Fi /Thriller  .   113 min   5.9/10
Director : Jon Turteltaub  
Tags: The  Meg  (2018)  1080p  BluRay  x265  

Released:
10 Aug 2018
Five years ago, expert sea diver and Naval Captain Jonas Taylor encountered an unknown danger in the unexplored recesses of the Mariana Trench that forced him to abort his mission and abandon half his crew. Though the tragic incident earned him a dishonorable disch.... See More arge, what ultimately cost him his career, his marriage and any semblance of honor was his unsupported and incredulous claims of what caused it - an attack on his vessel by a mammoth, 70-foot sea creature, believed to be extinct for more than a million years. But when a submersible lies sunk and disabled at the bottom of the ocean - carrying his ex-wife among the team onboard - he is the one who gets the call. Whether a shot at redemption or a suicide mission, Jonas must confront his fears and risk his own life and the lives of everyone trapped below on a single question: Could the Carcharodon Megalodon - the largest marine predator that ever existed - still be alive ... and on the hunt?

Torrent Description



[align=center]





[font=Comic Sans MS]The Meg (2018) 1080p BluRay x265 10Bit HEVC Multi Audio DD 5.1 [Dzrg Torrents®].mkv[/font]



[font=Comic Sans MS]Taglines: Chomp on this. [/font]

[video]http://www.youtube.com/watch?v=udm5jUA-2bs[/video]



[font=Comic Sans MS]Audio Credits- Hammer Bro[/font]



[font=Comic Sans MS]
General
Unique ID : 191907429663975009256253587058173861893 (0x906006CAEF0BEC108259416278B6E005)
Format version : Version 4
File size : 9.36 GiB
Duration : 1 h 53 min
Overall bit rate : 11.8 Mb/s
Movie name : The Meg (2018) 1080p BluRay x265 10Bit HEVC Multi Audio DD 5.1 [Dzrg Torrents®].mkv
Encoded date : UTC 2018-11-11 06:36:47
Writing application : mkvmerge v13.0.0 ('The Juggler') 64bit
Writing library : libebml v1.3.4 + libmatroska v1.4.5
[/font]



[font=Comic Sans MS]
Video
ID : 1
Format : HEVC
Format/Info : High Efficiency Video Coding
Format profile : Main [email protected]@Main
Codec ID : V_MPEGH/ISO/HEVC
Duration : 1 h 53 min
Bit rate : 9 363 kb/s
Width : 1 920 pixels
Height : 1 080 pixels
Display aspect ratio : 2.40:1
Frame rate mode : Constant
Frame rate : 23.976 (24000/1001) FPS
Color space : YUV
Chroma subsampling : 4:2:0
Bit depth : 10 bits
Bits/(Pixel*Frame) : 0.188
Stream size : 7.41 GiB (82%)
Title : The Meg (2018) 1080p BluRay x265 10Bit HEVC Multi Audio DD 5.1 [Dzrg Torrents®].mkv
Writing library : x265 2.6:[Windows][GCC 7.3.0][64 bit] 10bit
Color range : Limited
Color primaries : BT.709
Transfer characteristics : BT.709
Matrix coefficients : BT.709
[/font]











[font=Comic Sans MS]
Audio #1
ID : 2
Format : AC-3
Format/Info : Audio Coding 3
Commercial name : Dolby Digital
Codec ID : A_AC3
Duration : 1 h 53 min
Bit rate mode : Constant
Bit rate : 448 kb/s
Channel(s) : 6 channels
Channel layout : L R C LFE Ls Rs
Sampling rate : 48.0 kHz
Frame rate : 31.250 FPS (1536 SPF)
Bit depth : 16 bits
Compression mode : Lossy
Stream size : 363 MiB (4%)
Title : [DD 5.1 448 Kbps] [Dzrg Torrents®]
Language : Hindi
Service kind : Complete Main
Default : Yes
Forced : No


Audio #2
ID : 3
Format : AC-3
Format/Info : Audio Coding 3
Commercial name : Dolby Digital
Codec ID : A_AC3
Duration : 1 h 53 min
Bit rate mode : Constant
Bit rate : 640 kb/s
Channel(s) : 6 channels
Channel layout : L R C LFE Ls Rs
Sampling rate : 48.0 kHz
Frame rate : 31.250 FPS (1536 SPF)
Bit depth : 16 bits
Compression mode : Lossy
Stream size : 518 MiB (6%)
Title : [DD 5.1 640 Kbps] [Dzrg Torrents®]
Language : English
Service kind : Complete Main
Default : Yes
Forced : No

Audio #3
ID : 4
Format : AC-3
Format/Info : Audio Coding 3
Commercial name : Dolby Digital
Codec ID : A_AC3
Duration : 1 h 53 min
Bit rate mode : Constant
Bit rate : 448 kb/s
Channel(s) : 6 channels
Channel layout : L R C LFE Ls Rs
Sampling rate : 48.0 kHz
Frame rate : 31.250 FPS (1536 SPF)
Bit depth : 16 bits
Compression mode : Lossy
Stream size : 363 MiB (4%)
Title : [DD 5.1 448 Kbps] [Dzrg Torrents®]
Language : French
Service kind : Complete Main
Default : No
Forced : No

Audio #4
ID : 5
Format : AC-3
Format/Info : Audio Coding 3
Commercial name : Dolby Digital
Codec ID : A_AC3
Duration : 1 h 53 min
Bit rate mode : Constant
Bit rate : 448 kb/s
Channel(s) : 6 channels
Channel layout : L R C LFE Ls Rs
Sampling rate : 48.0 kHz
Frame rate : 31.250 FPS (1536 SPF)
Bit depth : 16 bits
Compression mode : Lossy
Stream size : 363 MiB (4%)
Title : [DD 5.1 448 Kbps] [Dzrg Torrents®]
Language : Spanish
Service kind : Complete Main
Default : No
Forced : No

Audio #5
ID : 6
Format : AC-3
Format/Info : Audio Coding 3
Commercial name : Dolby Digital
Codec ID : A_AC3
Duration : 1 h 53 min
Bit rate mode : Constant
Bit rate : 448 kb/s
Channel(s) : 6 channels
Channel layout : L R C LFE Ls Rs
Sampling rate : 48.0 kHz
Frame rate : 31.250 FPS (1536 SPF)
Bit depth : 16 bits
Compression mode : Lossy
Stream size : 363 MiB (4%)
Title : [DD 5.1 448 Kbps] [Dzrg Torrents®]
Language : Portuguese
Service kind : Complete Main
Default : No
Forced : No

[/font]



[font=Comic Sans MS]
Text #1
ID : 7
Format : PGS
Muxing mode : zlib
Codec ID : S_HDMV/PGS
Codec ID/Info : Picture based subtitle format used on BDs/HD-DVDs
Duration : 1 h 52 min
Bit rate : 547 b/s
Count of elements : 90
Stream size : 450 KiB (0%)
Title : [PGS] [Dzrg Torrents®]
Language : Hindi
Default : Yes
Forced : No


Text #2
ID : 8
Format : PGS
Muxing mode : zlib
Codec ID : S_HDMV/PGS
Codec ID/Info : Picture based subtitle format used on BDs/HD-DVDs
Duration : 1 h 52 min
Bit rate : 33.9 kb/s
Count of elements : 2960
Stream size : 27.2 MiB (0%)
Title : [PGS] [Dzrg Torrents®]
Language : English
Default : Yes
Forced : No

Text #3
ID : 9
Format : PGS
Muxing mode : zlib
Codec ID : S_HDMV/PGS
Codec ID/Info : Picture based subtitle format used on BDs/HD-DVDs
Duration : 1 h 52 min
Bit rate : 21.8 kb/s
Count of elements : 2558
Stream size : 17.5 MiB (0%)
Title : [PGS] [Dzrg Torrents®]
Language : French
Default : No
Forced : No

Text #4
ID : 10
Format : PGS
Muxing mode : zlib
Codec ID : S_HDMV/PGS
Codec ID/Info : Picture based subtitle format used on BDs/HD-DVDs
Duration : 1 h 52 min
Bit rate : 27.7 kb/s
Count of elements : 2780
Stream size : 22.3 MiB (0%)
Title : [PGS] [Dzrg Torrents®]
Language : Spanish
Default : No
Forced : No

Text #5
ID : 11
Format : PGS
Muxing mode : zlib
Codec ID : S_HDMV/PGS
Codec ID/Info : Picture based subtitle format used on BDs/HD-DVDs
Duration : 1 h 52 min
Bit rate : 29.6 kb/s
Count of elements : 2758
Stream size : 23.8 MiB (0%)
Title : [PGS] [Dzrg Torrents®]
Language : Portuguese
Default : No
Forced : No
[/font]


[font=Comic Sans MS]
Menu
00:00:00.000 : :Chapter 1
00:08:48.695 : :Chapter 2
00:18:14.260 : :Chapter 3
00:27:09.962 : :Chapter 4
00:39:30.535 : :Chapter 5
00:49:10.990 : :Chapter 6
00:58:01.478 : :Chapter 7
01:08:23.016 : :Chapter 8
01:19:45.948 : :Chapter 9
01:30:04.399 : :Chapter 10
01:42:41.072 : :Chapter 11
[/font]



Please Contribute Through Bitcoin-378zyc7YCno2H3kpqQomw1aJaUTaoeQWGC





[font=Comic Sans MS]Seeding From High Server[/font]

[/align]




Sharing Widget


No Comments For This Torrent . Be The First to Comment

You must Login to Comment . Click Here to Login

Menu 1

Some content in menu 1.

The Meg (2018) 1080p BluRay x265 10Bit HEVC Multi Audio DD 5 1 [Dzrg s (Size: 9.4 GB)
  The Meg (2018) 1080p BluRay x265 10Bit HEVC Multi Audio DD 5 1 [Dzrg s 9.4 GB
tracker name
udp://tracker.leechers-paradise.org:6969/announce
udp://zer0day.ch:1337/announce
udp://open.demonii.com:1337/announce
udp://tracker.coppersurfer.tk:6969/announce
udp://exodus.desync.com:6969/announce
µTorrent compatible trackers list

Relative Torrents

Torrent Name Size Age SEED LEECH
Marvels Avengers-Black Panthers Quest S0E10 480p x264-mSD [eztv]
Posted by    EZTVag   in   TV
62.6 MB 27 seconds 150 645
QI XL_P S16E06 Pictures revittony
Posted by    revittony   in   TV
540.8 MB 27 seconds 112 196
The Offroad Adventure Show S05E03 WEB H24-FLX [eztv]
Posted by    EZTVag   in   TV
364.8 MB 27 seconds 672 907
Windows 7 AIO SP1 x86 aggiornato a Novemre 2018 ITA
Posted by    DDAnonymous   in   Applications
2.5 GB 28 seconds 409 540
Henry Danger S05E06 720p WEB x264-TBS [etv]
Posted by    EZTVag   in   TV
901.3 MB 5 minutes 602 445