The Nun (2018) 1080p BDRip Multi Audio O Torrent Free Download

Seeders : 214   &   Leechers : 520      07-12-2018 (1 week)
The Nun (2018) 1080p BDRip Multi Audio O Torrent Download
Added: ago by Vision007 ***** in Movies   3.6 GB   Hits : 18
Info Hash: F5C43AC31FCD9A915CE2F6ED4D228C0C561AB91A Download
The Nun (2018) 1080p BDRip Multi Audio O Torrent Download

Anonymous and Direct Download movies , software , shows...

Fast Safe Anonymous
movies, software, shows...
The Nun
Horror /Mystery /Thriller  .   96 min   5.6/10
Director : Corin Hardy  
Tags: The  Nun  (2018)  1080p  BDRip  Multi  

Released:
07 Sep 2018
A priest with a haunted past and a novice on the threshold of her final vows are sent by the Vatican to investigate the death of a young nun in Romania and confront a malevolent force in the form of a demonic nun.

Torrent Description



The Nun (2018) 1080p BDRip Multi Audio ORG BD 5.1 [Hindi-Tamil-Telugu-Eng] x264 ~VISION



Storyline :

When a young nun at a cloistered abbey in Romania takes her own life, a priest with a haunted past and a novitiate on the threshold of her final vows are sent by the Vatican to investigate. Together, they uncover the order's unholy secret. Risking not only their lives but their faith and their very souls, they confront a malevolent force in the form of a demonic nun.


General

Complete name : The Nun (2018) 1080p BDRip Multi Audio ORG BD 5.1 [Hindi-Tamil-Telugu-Eng] x264 ~VISION
Format : Matroska
Format version : Version 4 / Version 2
File size : 1 h 36 min
Duration : 2h 27mn
Overall bit rate : 4 292 Kbps
Movie name : The Nun (2018) 1080p BDRip Multi Audio ORG BD 5.1 [Hindi-Tamil-Telugu-Eng] x264 ~VISION

Video
ID : 1
Format : AVC
Format/Info : Advanced Video Codec
Format profile : [email protected]
Format settings, CABAC : Yes
Format settings, ReFrames : 5 frames
Codec ID : V_MPEG4/ISO/AVC
Duration : 1 h 36 min
Bit rate : 3000 Kbps
Width : 1 920 pixels
Height : 800 pixels
Display aspect ratio : 16:9
Frame rate mode : Constant
Frame rate : 23.976 (24000/1001) fps
Color space : YUV
Chroma subsampling : 4:2:0
Bit depth : 8 bits
Scan type : Progressive
Bits/(Pixel*Frame) : 0.081
Stream size : 2.02 GiB (56%)
Title : x264, [email protected], 5 frames
Language : English
Default : Yes
Forced : No

Audio #1
ID : 2
Format : AC-3
Format/Info : Audio Coding 3
Mode extension : CM (complete main)
Format settings, Endianness : Big
Codec ID : A_AC3
Duration : 1 h 36 min
Bit rate mode : Constant
Bit rate : 640 Kbps
Channel(s) : 6 channels
Channel positions : Front: L C R, Side: L R, LFE
Sampling rate : 48.0 KHz
Frame rate : 31.250 fps (1536 spf)
Compression mode : Lossy
Stream size : 442 MiB (12%)
Title : Hindi Org Bluray DD 5.1 640Kbps
Language : Hindi
Default : Yes
Forced : No

Audio #2
ID : 3
Format : AC-3
Format/Info : Audio Coding 3
Mode extension : CM (complete main)
Format settings, Endianness : Big
Codec ID : A_AC3
Duration : 1 h 36 min
Bit rate mode : Constant
Bit rate : 640 Kbps
Channel(s) : 6 channels
Channel positions : Front: L C R, Side: L R, LFE
Sampling rate : 48.0 KHz
Frame rate : 31.250 fps (1536 spf)
Compression mode : Lossy
Stream size : 442 MiB (12%)
Title : Tamil Org Bluray DD 5.1 640Kbps
Language : Tamil
Default : Yes
Forced : No

Audio #3
ID : 4
Format : AC-3
Format/Info : Audio Coding 3
Mode extension : CM (complete main)
Format settings, Endianness : Big
Codec ID : A_AC3
Duration : 1 h 36 min
Bit rate mode : Constant
Bit rate : 640 Kbps
Channel(s) : 6 channels
Channel positions : Front: L C R, Side: L R, LFE
Sampling rate : 48.0 KHz
Frame rate : 31.250 fps (1536 spf)
Compression mode : Lossy
Stream size : 442 MiB (12%)
Title : Telugu Org Bluray DD 5.1 640Kbps
Language : Telugu
Default : Yes
Forced : No

Audio #4
ID : 5
Format : AC3
Format/Info : Audio Coding 3
Mode extension : CM (complete main)
Format settings, Endianness : Big
Codec ID : A_AC3
Duration : 1 h 36 min
Bit rate mode : Constant
Bit rate : 384 Kbps
Channel(s) : 6 channels
Channel positions : Front: L C R, Side: L R, LFE
Sampling rate : 48.0 KHz
Frame rate : 31.250 fps (512 SPF)
Compression mode : Lossy
Stream size : 265 MiB (7%)
Title : English Bluray DD 5.1 384Kbps
Language : English
Default : No
Forced : No

Text #1
ID : 6
Format : PGS
Muxing mode : zlib
Codec ID : S_HDMV/PGS
Codec ID/Info : Picture based subtitle format used on BDs/HD-DVDs
Duration : 1 h 35 min
Bit rate : 7 918 b/s
Count of elements : 1885
Stream size : 5.42 MiB (0%)
Title : English Bluray PGS
Language : English
Default : Yes
Forced : No


Chapters : Yes (Named)





NOTE :

1. SEEDING SPEED IS SLOW MIGHT BE!! :)
2. DO SEED BACK, FOR OTHERSs TO ENJOY!!
3. THANKS HAMMER FOR BLURAY HINDI AUDIO
4. ENjOY THe PERFECTION, FOR THOSE WHO LIKE PERFECTION




Sharing Widget


No Comments For This Torrent . Be The First to Comment

You must Login to Comment . Click Here to Login

Menu 1

Some content in menu 1.

The Nun (2018) 1080p BDRip Multi Audio ORG BD 5 1 [Hindi-Tamil-Telugu- (Size: 3.6 GB)
  The Nun (2018) 1080p BDRip Multi Audio ORG BD 5 1 [Hindi-Tamil-Telugu- 3.6 GB
tracker name
udp://tracker.leechers-paradise.org:6969/announce
udp://zer0day.ch:1337/announce
udp://open.demonii.com:1337/announce
udp://tracker.coppersurfer.tk:6969/announce
udp://exodus.desync.com:6969/announce
µTorrent compatible trackers list

Relative Torrents

Torrent Name Size Age SEED LEECH
[alternative folk] (2018) Death in June Essence! [FLAC,Tracks] {100 XY}
Posted by    sisyphus   in   Music
294.2 MB 33 seconds 60 386
Mama Medium S01E01 You Made Me a Believe HDTV x264-CRiMSON [eztv]
Posted by    EZTVag   in   TV
239.0 MB 35 seconds 804 255
Marriage Boot Camp Reality Stars S12E10 amily Edition A Family Affair 720p HDTV
Posted by    EZTVag   in   TV
1.1 GB 35 seconds 279 278
The Fix S01 COMPLETE WEB x264-CRiMSON[TG]
Posted by    mazemaze16   in   TV
2.8 GB 5 minutes 513 836
Long Lost Family US S05E07 She Chose Anoher Person Over Her Child 720p HDTV x26
Posted by    EZTVag   in   TV
681.1 MB 5 minutes 625 547