The Originals S05E04 Between the Devil a Torrent Free Download

Seeders : 710   &   Leechers : 887      13-05-2018 (7 months)
The Originals S05E04 Between the Devil a Torrent Download
Added: ago by D0ct0rLew ***** in TV   1.0 GB   Hits : 48
Info Hash: D76393EE1926F2D51157A9190E3A7A73C5E865F7 Download
The Originals S05E04 Between the Devil a Torrent Download

Anonymous and Direct Download movies , software , shows...

Fast Safe Anonymous
movies, software, shows...

Torrent Description







Media Information



Unique ID : 195710918533675937462850183817126329806 (0x933C8D45B2A1C23FA80E596D56B1BDCE)
Complete name : The Originals S05E04 Between the Devil and the Deep Blue Sea 1080p AMZN WEBRip x265 AAC 5.1 D0ct0rLew[UTR].mkv
Format : Matroska
Format version : Version 4 / Version 2
File size : 1.00 GiB
Duration : 42 min 19 s
Overall bit rate : 3 400 kb/s
Encoded date : UTC 2018-05-12 21:45:36
Writing application : mkvmerge v15.0.0 ('Duel with the Devil') 64-bit
Writing library : libebml v1.3.5 + libmatroska v1.4.5

Video
ID : 2
Format : HEVC
Format/Info : High Efficiency Video Coding
Format profile : Main [email protected]@Main
Codec ID : V_MPEGH/ISO/HEVC
Duration : 42 min 19 s
Bit rate : 2 949 kb/s
Width : 1 920 pixels
Height : 1 080 pixels
Display aspect ratio : 16:9
Frame rate mode : Constant
Frame rate : 23.976 (24000/1001) FPS
Color space : YUV
Chroma subsampling : 4:2:0
Bit depth : 10 bits
Bits/(Pixel*Frame) : 0.059
Stream size : 893 MiB (87%)
Writing library : x265 2.7+25-e1ed4d609b52:[Windows][MSVC 1914][64 bit] 10bit
Encoding settings : cpuid=1050111 / frame-threads=3 / numa-pools=8 / wpp / no-pmode / no-pme / no-psnr / no-ssim / log-level=2 / input-csp=1 / input-res=1920x1080 / interlace=0 / total-frames=60885 / level-idc=0 / high-tier=1 / uhd-bd=0 / ref=4 / no-allow-non-conformance / no-repeat-headers / annexb / no-aud / no-hrd / info / hash=0 / no-temporal-layers / open-gop / min-keyint=23 / keyint=250 / gop-lookahead=0 / bframes=8 / b-adapt=2 / b-pyramid / bframe-bias=0 / rc-lookahead=80 / lookahead-slices=4 / scenecut=40 / radl=0 / no-intra-refresh / ctu=64 / min-cu-size=8 / no-rect / no-amp / max-tu-size=32 / tu-inter-depth=1 / tu-intra-depth=1 / limit-tu=0 / rdoq-level=2 / dynamic-rd=0.00 / no-ssim-rd / signhide / no-tskip / nr-intra=0 / nr-inter=0 / no-constrained-intra / no-strong-intra-smoothing / max-merge=3 / limit-refs=3 / limit-modes / me=3 / subme=3 / merange=57 / temporal-mvp / weightp / no-weightb / no-analyze-src-pics / deblock=1:1 / sao / no-sao-non-deblock / rd=4 / no-early-skip / rskip / no-fast-intra / no-tskip-fast / no-cu-lossless / no-b-intra / no-splitrd-skip / rdpenalty=0 / psy-rd=1.10 / psy-rdoq=1.00 / no-rd-refine / no-lossless / cbqpoffs=0 / crqpoffs=0 / rc=crf / crf=20.0 / qcomp=0.50 / qpstep=4 / stats-write=0 / stats-read=0 / ipratio=1.40 / pbratio=1.30 / aq-mode=3 / aq-strength=1.10 / cutree / zone-count=0 / no-strict-cbr / qg-size=32 / no-rc-grain / qpmax=69 / qpmin=0 / no-const-vbv / sar=0 / overscan=0 / videoformat=5 / range=0 / colorprim=2 / transfer=2 / colormatrix=2 / chromaloc=0 / display-window=0 / max-cll=0,0 / min-luma=0 / max-luma=1023 / log2-max-poc-lsb=8 / vui-timing-info / vui-hrd-info / slices=1 / no-opt-qp-pps / no-opt-ref-list-length-pps / no-multi-pass-opt-rps / scenecut-bias=0.05 / no-opt-cu-delta-qp / no-aq-motion / no-hdr / no-hdr-opt / no-dhdr10-opt / no-idr-recovery-sei / analysis-reuse-level=5 / scale-factor=0 / refine-intra=0 / refine-inter=0 / refine-mv=0 / no-limit-sao / ctu-info=0 / no-lowpass-dct / refine-mv-type=0 / copy-pic=1 / max-ausize-factor=1.0 / no-dynamic-refine / no-single-sei
Default : Yes
Forced : No

Audio
ID : 1
Format : AAC
Format/Info : Advanced Audio Codec
Format profile : LC
Codec ID : A_AAC-2
Duration : 42 min 19 s
Bit rate : 448 kb/s
Channel(s) : 6 channels
Channel positions : Front: L C R, Side: L R, LFE
Sampling rate : 48.0 kHz
Frame rate : 46.875 FPS (1024 SPF)
Compression mode : Lossy
Delay relative to video : 9 ms
Stream size : 136 MiB (13%)
Default : Yes
Forced : No

Text
ID : 3
Format : UTF-8
Codec ID : S_TEXT/UTF8
Codec ID/Info : UTF-8 Plain Text
Duration : 42 min 10 s
Bit rate : 85 b/s
Count of elements : 865
Stream size : 26.5 KiB (0%)
Default : Yes
Forced : No[/code]

We have no issue with individuals posting or re-uploading our torrents on a platform we aren't on. However, if this is something you'd like to do, please do so in a 'as-is' format. We ask that you do not create a new torrent, include all descriptions you see above including the UTR logo, tags, notes and screenshots. If you'd like to become a permanent poster on a website we don't post to, feel free to get in contact with a UniTeam member.







Sharing Widget


No Comments For This Torrent . Be The First to Comment

You must Login to Comment . Click Here to Login

Menu 1

Some content in menu 1.

The Originals S05E04 Between the Devil and the Deep Blue Sea 1080p AMZ (Size: 1.0 GB)
  The Originals S05E04 Between the Devil and the Deep Blue Sea 1080p AMZ 1.0 GB
tracker name
udp://tracker.leechers-paradise.org:6969/announce
udp://zer0day.ch:1337/announce
udp://open.demonii.com:1337/announce
udp://tracker.coppersurfer.tk:6969/announce
udp://exodus.desync.com:6969/announce
µTorrent compatible trackers list

Relative Torrents

Torrent Name Size Age SEED LEECH
The Festival 2018 BRRip XviD AC3 With Saple LLG
Posted by    LifeLongg   in   Movies
1.1 GB 2 minutes 308 543
Auntie Edna (2018) [BluRay] [1080p] [YTS [YIFY]
Posted by    YTSAGx   in   Movies
84.0 MB 11 minutes 515 234
[Erai-raws] SSSS Gridman - 11 [1080p] mk () - AniDex
Posted by    Sour456Gol   in   Anime
731.0 MB 13 minutes 807 651
Doctor Who (1996) [BluRay] [1080p] [YTS][YIFY]
Posted by    YTSAGx   in   Movies
1.4 GB 17 minutes 700 326
Mike Judge Presents Tales From the Tour us S02E07 480p x264-mSD [eztv]
Posted by    EZTVag   in   TV
94.7 MB 18 minutes 580 726