The Predator 2018 1080p HC HDRip x264 Du Torrent Free Download

Seeders : 267   &   Leechers : 438      11-11-2018 (1 week)
The Predator 2018 1080p HC HDRip x264 Du Torrent Download
Added: ago by moviezworldz ***** in Movies   1.9 GB   Hits : 20
Info Hash: 67614E014D1E0827B6F46114E261DD3E463F90DE Download
The Predator 2018 1080p HC HDRip x264 Du Torrent Download

Anonymous and Direct Download movies , software , shows...

Fast Safe Anonymous
movies, software, shows...
The Predator
Action /Adventure /Horror /Sci-Fi /Thriller  .   107 min   5.9/10
Director : Shane Black  
Tags: The  Predator  2018  1080p  HC  HDRip  

Released:
14 Sep 2018
When a young boy accidentally triggers the universe's most lethal hunters' return to Earth, only a ragtag crew of ex-soldiers and a disgruntled scientist can prevent the end of the human race.

Torrent Description







General
Format : Matroska
Format version : Version 4 / Version 2
File size : 1.91 GiB
Duration : 1 h 46 min
Overall bit rate : 2 561 kb/s

Video
ID : 1
Format : AVC
Format/Info : Advanced Video Codec
Format profile : [email protected]
Format settings : CABAC / 4 Ref Frames
Format settings, CABAC : Yes
Format settings, RefFrames : 4 frames
Codec ID : V_MPEG4/ISO/AVC
Duration : 1 h 46 min
Bit rate : 2 200 kb/s
Width : 1 920 pixels
Height : 800 pixels
Display aspect ratio : 2.40:1
Frame rate mode : Constant
Frame rate : 30.000 FPS
Color space : YUV
Chroma subsampling : 4:2:0
Bit depth : 8 bits
Scan type : Progressive
Bits/(Pixel*Frame) : 0.048
Stream size : 1.62 GiB (85%)
Writing library : x264 core 155 r2901 7d0ff22
Default : Yes
Forced : No

Audio #1
ID : 2
Format : AAC
Format/Info : Advanced Audio Codec
Format profile : LC
Codec ID : A_AAC-2
Duration : 1 h 46 min
Bit rate : 128 kb/s
Channel(s) : 2 channels
Channel positions : Front: L R
Sampling rate : 48.0 kHz
Frame rate : 46.875 FPS (1024 SPF)
Compression mode : Lossy
Stream size : 97.8 MiB (5%)
Language : Hindi
Default : Yes
Forced : No

Audio #2
ID : 3
Format : AAC
Format/Info : Advanced Audio Codec
Format profile : LC
Codec ID : A_AAC-2
Duration : 1 h 46 min
Bit rate : 256 kb/s
Channel(s) : 2 channels
Channel positions : Front: L R
Sampling rate : 48.0 kHz
Frame rate : 46.875 FPS (1024 SPF)
Compression mode : Lossy
Stream size : 196 MiB (10%)
Language : English
Default : No
Forced : No


Click To View Image











Sharing Widget


No Comments For This Torrent . Be The First to Comment

You must Login to Comment . Click Here to Login

Menu 1

Some content in menu 1.

The Predator 2018 1080p HC HDRip x264 Dual Audio [Hindi - English] [MW (Size: 1.9 GB)
  The Predator 2018 1080p HC HDRip x264 Dual Audio [Hindi - English] [MW 1.9 GB
tracker name
udp://tracker.leechers-paradise.org:6969/announce
udp://zer0day.ch:1337/announce
udp://open.demonii.com:1337/announce
udp://tracker.coppersurfer.tk:6969/announce
udp://exodus.desync.com:6969/announce
µTorrent compatible trackers list

Relative Torrents

Torrent Name Size Age SEED LEECH
The Clinton Affair S01E03 XviD-AFG[TGx]
Posted by    mazemaze16   in   TV
509.3 MB 7 minutes 703 704
Beyond The Sky 2018 BluRay 1080p x264 DT-HD MA5 1-DTOne
Posted by    SaM   in   Movies
7.8 GB 8 minutes 171 639
The Ballad Of Buster Scruggs 2018 1080p F WebDL AVC DD 5 1-DTOne
Posted by    SaM   in   Movies
5.6 GB 11 minutes 102 518
Boarding School 2018 1080 Bluray x264 DT-HDMA 5 1-DTOne
Posted by    SaM   in   Movies
10.5 GB 14 minutes 491 560
Paul Heaton-The Last King Of Pop[Flac]
Posted by    nata27   in   Music
539.1 MB 14 minutes 614 109