The Romanoffs (2018) S01E06 1080p WebRip Torrent Free Download

Seeders : 472   &   Leechers : 524      11-11-2018 (1 week)
The Romanoffs (2018) S01E06 1080p WebRip Torrent Download
Added: ago by 1337xKira ***** in TV   1.6 GB   Hits : 17
Info Hash: 14F2530372DCE964B4FA7C2506B4D64199E65C17 Download
The Romanoffs (2018) S01E06 1080p WebRip Torrent Download

Anonymous and Direct Download movies , software , shows...

Fast Safe Anonymous
movies, software, shows...
The Romanoffs
Drama   .   60 min   7.2/10
Starring : Diane Lane  John Slattery  
Director : N/A  
Writer: Matthew Weiner  
Tags: The  Romanoffs  (2018)  S01E06  1080p  WebRip  

Released:
12 Oct 2018
A contemporary anthology series set around the globe featuring eight separate stories about people who believe themselves to be descendants of the Russian royal family.

Torrent Description



From now on, all of my uploads will be uploaded on this account under SEV.








Media Information

Code:

General
Format : Matroska
Format version : Version 4
File size : 1.58 GiB
Duration : 1 h 20 min
Overall bit rate : 2 810 kb/s
Movie name : The Romanoffs : S01.E06 : Panorama
Encoded date : UTC 2018-11-10 03:18:55
Writing application : mkvmerge v28.2.0 ('The Awakening') 64-bit
Writing library : libebml v1.3.6 + libmatroska v1.4.9

Video
ID : 1
Format : HEVC
Format/Info : High Efficiency Video Coding
Format profile : Main [email protected]@Main
Codec ID : V_MPEGH/ISO/HEVC
Duration : 1 h 20 min
Bit rate : 2 167 kb/s
Width : 1 920 pixels
Height : 1 080 pixels
Display aspect ratio : 16:9
Frame rate mode : Constant
Frame rate : 23.976 (24000/1001) FPS
Color space : YUV
Chroma subsampling : 4:2:0
Bit depth : 10 bits
Bits/(Pixel*Frame) : 0.044
Stream size : 1.22 GiB (77%)
Title : The Romanoffs : S01.E06 : Panorama
Writing library : x265 2.9+1-169e76b6bbcc:[Windows][MSVC 1915][64 bit] 10bit
Encoding settings : cpuid=1111039 / frame-threads=2 / numa-pools=4 / wpp / no-pmode / no-pme / no-psnr / no-ssim / log-level=2 / input-csp=1 / input-res=1920x1080 / interlace=0 / total-frames=115541 / level-idc=0 / high-tier=1 / uhd-bd=0 / ref=4 / no-allow-non-conformance / no-repeat-headers / annexb / no-aud / no-hrd / info / hash=0 / no-temporal-layers / open-gop / min-keyint=23 / keyint=250 / gop-lookahead=0 / bframes=8 / b-adapt=2 / b-pyramid / bframe-bias=0 / rc-lookahead=100 / lookahead-slices=4 / scenecut=40 / radl=0 / no-intra-refresh / ctu=64 / min-cu-size=8 / no-rect / no-amp / max-tu-size=32 / tu-inter-depth=1 / tu-intra-depth=1 / limit-tu=0 / rdoq-level=2 / dynamic-rd=0.00 / no-ssim-rd / signhide / no-tskip / nr-intra=0 / nr-inter=0 / no-constrained-intra / no-strong-intra-smoothing / max-merge=3 / limit-refs=3 / limit-modes / me=3 / subme=5 / merange=57 / temporal-mvp / weightp / no-weightb / no-analyze-src-pics / deblock=1:1 / sao / no-sao-non-deblock / rd=4 / no-early-skip / rskip / no-fast-intra / no-tskip-fast / no-cu-lossless / no-b-intra / no-splitrd-skip / rdpenalty=0 / psy-rd=1.30 / psy-rdoq=1.00 / no-rd-refine / no-lossless / cbqpoffs=0 / crqpoffs=0 / rc=crf / crf=22.0 / qcomp=0.60 / qpstep=4 / stats-write=0 / stats-read=0 / ipratio=1.40 / pbratio=1.30 / aq-mode=3 / aq-strength=0.90 / cutree / zone-count=0 / no-strict-cbr / qg-size=32 / no-rc-grain / qpmax=69 / qpmin=0 / no-const-vbv / sar=0 / overscan=0 / videoformat=5 / range=0 / colorprim=2 / transfer=2 / colormatrix=2 / chromaloc=0 / display-window=0 / max-cll=0,0 / min-luma=0 / max-luma=1023 / log2-max-poc-lsb=8 / vui-timing-info / vui-hrd-info / slices=1 / no-opt-qp-pps / no-opt-ref-list-length-pps / no-multi-pass-opt-rps / scenecut-bias=0.05 / no-opt-cu-delta-qp / no-aq-motion / no-hdr / no-hdr-opt / no-dhdr10-opt / no-idr-recovery-sei / analysis-reuse-level=5 / scale-factor=0 / refine-intra=0 / refine-inter=0 / refine-mv=0 / no-limit-sao / ctu-info=0 / no-lowpass-dct / refine-mv-type=0 / copy-pic=1 / max-ausize-factor=1.0 / no-dynamic-refine / no-single-sei
Language : English
Default : Yes
Forced : No

Audio
ID : 2
Format : E-AC-3
Format/Info : Enhanced AC-3
Commercial name : Dolby Digital Plus
Codec ID : A_EAC3
Duration : 1 h 20 min
Bit rate mode : Constant
Bit rate : 640 kb/s
Channel(s) : 6 channels
Channel layout : L R C LFE Ls Rs
Sampling rate : 48.0 kHz
Frame rate : 31.250 FPS (1536 SPF)
Compression mode : Lossy
Stream size : 368 MiB (23%)
Title : English EAC3_5.1 @ 640 Kbps
Language : English
Service kind : Complete Main
Default : Yes
Forced : No

Text #1
ID : 3
Format : UTF-8
Codec ID : S_TEXT/UTF8
Codec ID/Info : UTF-8 Plain Text
Duration : 1 h 19 min
Bit rate : 48 b/s
Count of elements : 1004
Stream size : 28.1 KiB (0%)
Title : English SDH SRT
Language : English
Default : Yes
Forced : No

Text #2
ID : 4
Format : UTF-8
Codec ID : S_TEXT/UTF8
Codec ID/Info : UTF-8 Plain Text
Duration : 1 h 17 min
Bit rate : 43 b/s
Count of elements : 816
Stream size : 24.5 KiB (0%)
Language : Danish
Default : No
Forced : No

Text #3
ID : 5
Format : UTF-8
Codec ID : S_TEXT/UTF8
Codec ID/Info : UTF-8 Plain Text
Duration : 1 h 17 min
Bit rate : 43 b/s
Count of elements : 816
Stream size : 24.5 KiB (0%)
Language : German
Default : No
Forced : No

Text #4
ID : 6
Format : UTF-8
Codec ID : S_TEXT/UTF8
Codec ID/Info : UTF-8 Plain Text
Duration : 1 h 17 min
Bit rate : 35 b/s
Count of elements : 671
Stream size : 20.3 KiB (0%)
Language : Spanish
Default : No
Forced : No

Text #5
ID : 7
Format : UTF-8
Codec ID : S_TEXT/UTF8
Codec ID/Info : UTF-8 Plain Text
Duration : 1 h 17 min
Bit rate : 35 b/s
Count of elements : 671
Stream size : 20.3 KiB (0%)
Language : Spanish
Default : No
Forced : No

Text #6
ID : 8
Format : UTF-8
Codec ID : S_TEXT/UTF8
Codec ID/Info : UTF-8 Plain Text
Duration : 1 h 17 min
Bit rate : 46 b/s
Count of elements : 815
Stream size : 26.3 KiB (0%)
Language : French
Default : No
Forced : No

Text #7
ID : 9
Format : UTF-8
Codec ID : S_TEXT/UTF8
Codec ID/Info : UTF-8 Plain Text
Duration : 1 h 17 min
Bit rate : 118 b/s
Count of elements : 817
Stream size : 66.8 KiB (0%)
Language : Hindi
Default : No
Forced : No

Text #8
ID : 10
Format : UTF-8
Codec ID : S_TEXT/UTF8
Codec ID/Info : UTF-8 Plain Text
Duration : 1 h 17 min
Bit rate : 42 b/s
Count of elements : 815
Stream size : 24.0 KiB (0%)
Language : Italian
Default : No
Forced : No

Text #9
ID : 11
Format : UTF-8
Codec ID : S_TEXT/UTF8
Codec ID/Info : UTF-8 Plain Text
Duration : 1 h 17 min
Bit rate : 42 b/s
Count of elements : 816
Stream size : 23.8 KiB (0%)
Language : Norwegian Bokmal
Default : No
Forced : No

Text #10
ID : 12
Format : UTF-8
Codec ID : S_TEXT/UTF8
Codec ID/Info : UTF-8 Plain Text
Duration : 1 h 17 min
Bit rate : 41 b/s
Count of elements : 786
Stream size : 23.3 KiB (0%)
Language : Dutch
Default : No
Forced : No

Text #11
ID : 13
Format : UTF-8
Codec ID : S_TEXT/UTF8
Codec ID/Info : UTF-8 Plain Text
Duration : 1 h 17 min
Bit rate : 41 b/s
Count of elements : 815
Stream size : 23.7 KiB (0%)
Language : Polish
Default : No
Forced : No

Text #12
ID : 14
Format : UTF-8
Codec ID : S_TEXT/UTF8
Codec ID/Info : UTF-8 Plain Text
Duration : 1 h 17 min
Bit rate : 41 b/s
Count of elements : 815
Stream size : 23.2 KiB (0%)
Language : Portuguese
Default : No
Forced : No

Text #13
ID : 15
Format : UTF-8
Codec ID : S_TEXT/UTF8
Codec ID/Info : UTF-8 Plain Text
Duration : 1 h 17 min
Bit rate : 42 b/s
Count of elements : 816
Stream size : 23.8 KiB (0%)
Language : Swedish
Default : No
Forced : No

Text #14
ID : 16
Format : UTF-8
Codec ID : S_TEXT/UTF8
Codec ID/Info : UTF-8 Plain Text
Duration : 1 h 17 min
Bit rate : 147 b/s
Count of elements : 843
Stream size : 83.5 KiB (0%)
Language : Tamil
Default : No
Forced : No

Text #15
ID : 17
Format : UTF-8
Codec ID : S_TEXT/UTF8
Codec ID/Info : UTF-8 Plain Text
Duration : 1 h 17 min
Bit rate : 134 b/s
Count of elements : 820
Stream size : 76.0 KiB (0%)
Language : Telugu
Default : No
Forced : No

Menu
00:00:00.000 : en:Amazon Original
00:00:05.000 : en:Title Sequence
00:01:35.000 : en:Abel gets a few tests done
00:13:32.000 : en:Abel has a follow up appointment for the results
00:17:53.000 : en:Abel is confronted with his negativity
00:23:44.000 : en:Victoria, Nick, and Abel explore Mexico City cathedrals
00:33:41.000 : en:Abel offers to show them more of the city
00:38:16.000 : en:All of history, happening at once
00:46:43.000 : en:Lourdes gives Abel valuable information
00:53:08.000 : en:Life and death can make anything look like love
01:03:26.000 : en:Being connected is bigger than anything else
01:13:21.000 : en:Hearts always hurt more while they are learning
01:19:18.000 : en:End Credits



Source Information

Code:

Release:
The.Romanoffs.S01E06.Panorama.1080p.AMZN.WEB-DL.DDP5.1.H.264-NTG (3.37 GB)



We have no issue with individuals posting or re-uploading our torrents on a platform we aren't on. However, if this is something you'd like to do, please do so in a 'as-is' format. We ask that you do not create a new torrent, include all descriptions you see above including the SEV logo, tags, notes and screenshots. If you'd like to become a permanent poster on a website we don't post to, feel free to get in contact with a Sublime Encoded Video member.

We are recruiting/training new members for SEV. As you already know, we deliver quality, so you know the standard. If you're interested, feel free to contact any of the team members.




Sharing Widget


No Comments For This Torrent . Be The First to Comment

You must Login to Comment . Click Here to Login

Menu 1

Some content in menu 1.

The Romanoffs (2018) S01E06 1080p WebRip x265 EAC3 5 1 Kira [SEV] (Size: 1.6 GB)
  The Romanoffs (2018) S01E06 1080p WebRip x265 EAC3 5 1 Kira [SEV] 1.6 GB
tracker name
udp://tracker.leechers-paradise.org:6969/announce
udp://zer0day.ch:1337/announce
udp://open.demonii.com:1337/announce
udp://tracker.coppersurfer.tk:6969/announce
udp://exodus.desync.com:6969/announce
µTorrent compatible trackers list

Relative Torrents

Torrent Name Size Age SEED LEECH
Mickey Mouse Clubhouse S02E25 720p WEB x64-CRiMSON [eztv]
Posted by    EZTVag   in   TV
330.7 MB 8 minutes 962 943
The Pioneer Woman S20E00 Best of Drummon Family Favorites WEB x264-CAFFEiNE [ez
Posted by    EZTVag   in   TV
272.7 MB 8 minutes 27 489
Dynasties S01E02 Emperor HDTV x264-BRiTiHB00Bs[TGx]
Posted by    mazemaze16   in   TV
316.0 MB 8 minutes 479 604
Dynasties S01E02 Emperor XviD-AFG[TGx]
Posted by    mazemaze16   in   TV
475.8 MB 8 minutes 412 324
Dynasties S01E02 Emperor 720p HDTV x264-RiTiSHB00Bs[TGx]
Posted by    mazemaze16   in   TV
897.3 MB 8 minutes 8 816