Tiger 2018 Movies HDRip x264 5 1 MSubs w Torrent Free Download

Seeders : 597   &   Leechers : 142      11-11-2018 (1 week)
Tiger 2018 Movies HDRip x264 5 1 MSubs w Torrent Download
Added: ago by nehalpuja ***** in Movies   788.0 MB   Hits : 20
Info Hash: 78E357266A996CF2D6B0AAD19C7F2B8AC0F466E1 Download
Tiger 2018 Movies HDRip x264 5 1 MSubs w Torrent Download

Anonymous and Direct Download movies , software , shows...

Fast Safe Anonymous
movies, software, shows...
Crouching Tiger, Hidden Dragon
Action /Adventure /Fantasy  .   120 min   7.9/10
Director : Ang Lee  
Tags: Tiger  2018  Movies  HDRip  x264  5  

Released:
12 Jan 2001
In 19th century Qing Dynasty China, a warrior gives his sword, Green Destiny, to his lover to deliver to safe keeping, but it is stolen, and the chase is on to find it. The search leads to the House of Yu where the story takes on a whole different level.

Torrent Description



Tiger 2018 Movies HDRip x264 5.1 MSubs with Sample ☻rDX☻
===============================================================================================

SCREEN SHOTS:



or

http://iphonehosting.eu/2018/11/a/honda/1.html

File size : 780 MiB
Duration : 1 h 35 min
Overall bit rate : 1 145 kb/s
Movie name : Tiger 2018 Movies HDRip x264 5.1 MSubs ☻rDX☻

Video
ID : 2
Format : AVC
Format/Info : Advanced Video Codec
Format profile : [email protected]
Format settings, CABAC : Yes
Format settings, ReFrames : 2 frames
Format settings, GOP : M=1, N=12
Codec ID : V_MPEG4/ISO/AVC
Duration : 1 h 35 min
Bit rate mode : Constant
Bit rate : 954 kb/s
Width : 700 pixels
Height : 294 pixels
Display aspect ratio : 16:9
Original display aspect ratio : 2.40:1
Frame rate mode : Constant
Frame rate : 23.976 (24000/1001) FPS
Color space : YUV
Chroma subsampling : 4:2:0
Bit depth : 8 bits
Scan type : Progressive
Bits/(Pixel*Frame) : 0.193
Stream size : 634 MiB (81%)
Title : ☻rDX☻
Default : Yes
Forced : No

Audio
ID : 1
Format : AC-3
Format/Info : Audio Coding 3
Mode extension : CM (complete main)
Format settings, Endianness : Big
Codec ID : A_AC3
Duration : 1 h 35 min
Bit rate mode : Constant
Bit rate : 192 kb/s
Channel(s) : 6 channels
Channel positions : Front: L C R, Side: L R, LFE
Sampling rate : 44.1 kHz
Frame rate : 28.711 FPS (1536 spf)
Bit depth : 16 bits
Compression mode : Lossy
Stream size : 131 MiB (17%)
Title : ☻rDX☻
Default : Yes
Forced : No

Text #1
ID : 3
Format : UTF-8
Codec ID : S_TEXT/UTF8
Codec ID/Info : UTF-8 Plain Text
Title : ☻rDX☻
Language : Spanish
Default : Yes
Forced : No

Text #2
ID : 4
Format : UTF-8
Codec ID : S_TEXT/UTF8
Codec ID/Info : UTF-8 Plain Text
Title : ☻rDX☻
Language : Portuguese
Default : No
Forced : No

http://www.imdb.com/title/tt4224754




Sharing Widget


No Comments For This Torrent . Be The First to Comment

You must Login to Comment . Click Here to Login

Menu 1

Some content in menu 1.

Tiger 2018 Movies HDRip x264 5 1 MSubs with Sample ☻rDX☻ (Size: 788.0 MB)
  Tiger 2018 Movies HDRip x264 5 1 MSubs with Sample ☻rDX☻ 788.0 MB
tracker name
udp://tracker.leechers-paradise.org:6969/announce
udp://zer0day.ch:1337/announce
udp://open.demonii.com:1337/announce
udp://tracker.coppersurfer.tk:6969/announce
udp://exodus.desync.com:6969/announce
µTorrent compatible trackers list

Relative Torrents

Torrent Name Size Age SEED LEECH
Christopher Kimballs Milk Street Televison S02E03 Middle East Classics 720p HDT
Posted by    EZTVag   in   TV
498.5 MB 1 minute 416 232
Mickey Mouse Clubhouse S02E22 720p WEB x64-CRiMSON [eztv]
Posted by    EZTVag   in   TV
330.8 MB 6 minutes 951 280
Mickey Mouse Clubhouse S02E23 720p WEB x64-CRiMSON [eztv]
Posted by    EZTVag   in   TV
540.6 MB 6 minutes 343 822
Mickey Mouse Clubhouse S02E25 720p WEB x64-CRiMSON [eztv]
Posted by    EZTVag   in   TV
330.7 MB 6 minutes 962 943
Mickey Mouse Clubhouse S02E26 720p WEB x64-CRiMSON [eztv]
Posted by    EZTVag   in   TV
346.0 MB 6 minutes 201 869