Titans (2018) S01E05 1080p WebRip x265 A Torrent Free Download

Seeders : 87   &   Leechers : 798      11-11-2018 (1 week)
Titans (2018) S01E05 1080p WebRip x265 A Torrent Download
Added: ago by 1337xKira ***** in TV   501.9 MB   Hits : 17
Info Hash: 89CA45FCD2D43F63AFC9EA9AE135456F8956859F Download
Titans (2018) S01E05 1080p WebRip x265 A Torrent Download

Anonymous and Direct Download movies , software , shows...

Fast Safe Anonymous
movies, software, shows...
Titans
Action /Adventure /Drama /Fantasy /Sci-Fi  .   45 min   7.9/10
Director : N/A  
Tags: Titans  (2018)  S01E05  1080p  WebRip  x265  

Released:
12 Oct 2018
A team of young superheroes led by Nightwing (formerly Batman's first Robin) form to combat evil and other perils.

Torrent Description



Note :- From now on, all of my uploads will be uploaded on this account under SEV.








Media Information


Code:

General
Format                      : Matroska
Format version              : Version 4
File size                   : 502 MiB
Duration                    : 41 min 1 s
Overall bit rate            : 1 711 kb/s
Movie name                  : Titans : S01.E05 : Together
Encoded date                : UTC 2018-11-11 02:57:00
Writing application         : mkvmerge v28.2.0 ('The Awakening') 64-bit
Writing library             : libebml v1.3.6 + libmatroska v1.4.9

Video
ID                          : 1
Format                      : HEVC
Format/Info                 : High Efficiency Video Coding
Format profile              : Main [email protected]@Main
Codec ID                    : V_MPEGH/ISO/HEVC
Duration                    : 41 min 1 s
Bit rate                    : 1 580 kb/s
Width                       : 1 920 pixels
Height                      : 1 080 pixels
Display aspect ratio        : 16:9
Frame rate mode             : Constant
Frame rate                  : 23.976 (24000/1001) FPS
Color space                 : YUV
Chroma subsampling          : 4:2:0
Bit depth                   : 10 bits
Bits/(Pixel*Frame)          : 0.032
Stream size                 : 464 MiB (92%)
Title                       : Titans : S01.E05 : Together
Writing library             : x265 2.9+1-169e76b6bbcc:[Windows][MSVC 1915][64 bit] 10bit
Encoding settings           : cpuid=1111039 / frame-threads=2 / numa-pools=4 / wpp / no-pmode / no-pme / no-psnr / no-ssim / log-level=2 / input-csp=1 / input-res=1920x1080 / interlace=0 / total-frames=59006 / level-idc=0 / high-tier=1 / uhd-bd=0 / ref=4 / no-allow-non-conformance / no-repeat-headers / annexb / no-aud / no-hrd / info / hash=0 / no-temporal-layers / open-gop / min-keyint=23 / keyint=250 / gop-lookahead=0 / bframes=8 / b-adapt=2 / b-pyramid / bframe-bias=0 / rc-lookahead=100 / lookahead-slices=4 / scenecut=40 / radl=0 / no-intra-refresh / ctu=64 / min-cu-size=8 / no-rect / no-amp / max-tu-size=32 / tu-inter-depth=1 / tu-intra-depth=1 / limit-tu=0 / rdoq-level=2 / dynamic-rd=0.00 / no-ssim-rd / signhide / no-tskip / nr-intra=0 / nr-inter=0 / no-constrained-intra / no-strong-intra-smoothing / max-merge=3 / limit-refs=3 / limit-modes / me=3 / subme=5 / merange=57 / temporal-mvp / weightp / no-weightb / no-analyze-src-pics / deblock=1:1 / sao / no-sao-non-deblock / rd=4 / no-early-skip / rskip / no-fast-intra / no-tskip-fast / no-cu-lossless / no-b-intra / no-splitrd-skip / rdpenalty=0 / psy-rd=1.30 / psy-rdoq=1.00 / no-rd-refine / no-lossless / cbqpoffs=0 / crqpoffs=0 / rc=crf / crf=22.0 / qcomp=0.60 / qpstep=4 / stats-write=0 / stats-read=0 / ipratio=1.40 / pbratio=1.30 / aq-mode=3 / aq-strength=1.00 / cutree / zone-count=0 / no-strict-cbr / qg-size=32 / no-rc-grain / qpmax=69 / qpmin=0 / no-const-vbv / sar=0 / overscan=0 / videoformat=5 / range=0 / colorprim=2 / transfer=2 / colormatrix=2 / chromaloc=0 / display-window=0 / max-cll=0,0 / min-luma=0 / max-luma=1023 / log2-max-poc-lsb=8 / vui-timing-info / vui-hrd-info / slices=1 / no-opt-qp-pps / no-opt-ref-list-length-pps / no-multi-pass-opt-rps / scenecut-bias=0.05 / no-opt-cu-delta-qp / no-aq-motion / no-hdr / no-hdr-opt / no-dhdr10-opt / no-idr-recovery-sei / analysis-reuse-level=5 / scale-factor=0 / refine-intra=0 / refine-inter=0 / refine-mv=0 / no-limit-sao / ctu-info=0 / no-lowpass-dct / refine-mv-type=0 / copy-pic=1 / max-ausize-factor=1.0 / no-dynamic-refine / no-single-sei
Language                    : English
Default                     : Yes
Forced                      : No

Audio
ID                          : 2
Format                      : AAC LC
Format/Info                 : Advanced Audio Codec Low Complexity
Codec ID                    : A_AAC-2
Duration                    : 41 min 1 s
Bit rate                    : 128 kb/s
Channel(s)                  : 2 channels
Channel layout              : L R
Sampling rate               : 48.0 kHz
Frame rate                  : 46.875 FPS (1024 SPF)
Compression mode            : Lossy
Stream size                 : 37.5 MiB (7%)
Title                       : English AAC_2.0
Language                    : English
Default                     : Yes
Forced                      : No

Text
ID                          : 3
Format                      : UTF-8
Codec ID                    : S_TEXT/UTF8
Codec ID/Info               : UTF-8 Plain Text
Duration                    : 38 min 33 s
Bit rate                    : 63 b/s
Count of elements           : 612
Stream size                 : 17.8 KiB (0%)
Title                       : English SDH SRT
Language                    : English
Default                     : Yes
Forced                      : No



Source Information


Code:

Release:
Titans.2018.S01E05.Together.1080p.DCU.WEB-DL.AAC2.0.H264-NTb (1.45 GB)



We have no issue with individuals posting or re-uploading our torrents on a platform we aren't on. However, if this is something you'd like to do, please do so in a 'as-is' format. We ask that you do not create a new torrent, include all descriptions you see above including the SEV logo, tags, notes and screenshots. If you'd like to become a permanent poster on a website we don't post to, feel free to get in contact with a Sublime Encoded Video member.

We are recruiting/training new members for SEV. As you already know, we deliver quality, so you know the standard. If you're interested, feel free to contact any of the team members.





Sharing Widget


No Comments For This Torrent . Be The First to Comment

You must Login to Comment . Click Here to Login

Menu 1

Some content in menu 1.

Titans (2018) S01E05 1080p WebRip x265 AAC 2 0 Kira [SEV] (Size: 501.9 MB)
  Titans (2018) S01E05 1080p WebRip x265 AAC 2 0 Kira [SEV] 501.9 MB
tracker name
udp://tracker.leechers-paradise.org:6969/announce
udp://zer0day.ch:1337/announce
udp://open.demonii.com:1337/announce
udp://tracker.coppersurfer.tk:6969/announce
udp://exodus.desync.com:6969/announce
µTorrent compatible trackers list

Relative Torrents

Torrent Name Size Age SEED LEECH
Henry Danger S05E06 720p WEB x264-TBS [etv]
Posted by    EZTVag   in   TV
901.3 MB 3 minutes 602 445
Star Wars Resistance S01E07 XviD-AFG [ezv]
Posted by    EZTVag   in   TV
259.3 MB 3 minutes 899 471
Henry Danger S05E06 720p WEB x264-TBS
Posted by    Trige   in   TV
901.3 MB 3 minutes 440 393
Marvels Avengers-Black Panthers Quest S0E10 720p WEB x264-TBS [eztv]
Posted by    EZTVag   in   TV
514.6 MB 3 minutes 148 672
Andre Rieu - Magic of the violin (with Jhann Strauss Orchestra) CD 320k (musicf
Posted by    michaelrizzo   in   Music
136.7 MB 7 minutes 277 168